<?xml version="1.0" standalone="no"?>
<!DOCTYPE svg PUBLIC "-//W3C//DTD SVG 1.1//EN" "http://www.w3.org/Graphics/SVG/1.1/DTD/svg11.dtd">
<svg xmlns="http://www.w3.org/2000/svg">
<defs >
<font id="OpenSansCondensed" horiz-adv-x="775" ><font-face
    font-family="Open Sans Condensed Light"
    units-per-em="2048"
    panose-1="2 11 3 6 3 5 4 2 2 4"
    ascent="2189"
    descent="-600"
    alphabetic="0" />
<glyph unicode=" " glyph-name="space" horiz-adv-x="346" />
<glyph unicode="!" glyph-name="exclam" horiz-adv-x="477" d="M266 367H205L408 1462H530L266 367ZM96 53Q96 114 124 155T199 197Q226 197 241 176T256 121Q256 60 229 22T158 -16Q133 -16 115 1T96 53Z" />
<glyph unicode="&quot;" glyph-name="quotedbl" horiz-adv-x="616" d="M412 1462L274 934H213L295 1462H412ZM680 1462L541 934H479L563 1462H680Z" />
<glyph unicode="#" glyph-name="numbersign" horiz-adv-x="782" d="M53 467L72 557H223L350 956H199L217 1042H379L508 1462H590L459 1042H662L795 1462H870L741 1042H889L870 956H713L586 557H743L725 467H559L412 0H330L479 467H276L131 0H51L197 467H53ZM305
557H506L635 956H430L305 557Z" />
<glyph unicode="$" glyph-name="dollar" horiz-adv-x="737" d="M223 -119L274 123Q122 128 53 176V279Q82 257 142 237T293 215L406 743Q321 808 290 845T241 929T223 1034Q223 1177 306 1265T539 1370L580 1556H662L623 1374Q742 1371 834 1317L786 1227Q687
1281 602 1284L498 795Q579 729 611 684T663 582T682 451Q682 314 598 228T356 125L305 -119H223ZM588 449Q588 534 556 590T475 688L377 219Q479 233 533 292T588 449ZM319 1040Q319 989 344 944T428 850L520 1278Q319 1251 319 1040Z" />
<glyph unicode="%" glyph-name="percent" horiz-adv-x="1087" d="M1014 1462L279 0H190L930 1462H1014ZM924 819Q876 819 827 723T740 457T702 180Q702 63 764 63Q817 63 866 161T950 421T985 694Q985 819 924 819ZM1067 696Q1067 530 1021 355T903 80T750 -20Q687
-20 655 34T623 182Q623 340 668 517T785 796T938 897Q1001 897 1034 842T1067 696ZM453 1405Q405 1405 356 1309T269 1043T231 766Q231 649 293 649Q346 649 395 747T479 1007T514 1280Q514 1405 453 1405ZM596 1282Q596 1115 549 939T431 664T279 565Q218 565
185 618T152 768Q152 924 197 1100T313 1380T467 1483Q528 1483 562 1430T596 1282Z" />
<glyph unicode="&amp;" glyph-name="ampersand" horiz-adv-x="750" d="M582 0L535 166Q458 58 397 19T262 -20Q158 -20 100 49T41 236Q41 401 112 535T350 795Q309 937 309 1063Q309 1260 374 1371T553 1483Q615 1483 653 1437T692 1303Q692 1159 629 1019T451
770L569 350Q637 475 682 645H766Q746 550 693 430T598 252L680 0H582ZM373 717Q135 527 135 254Q135 72 268 72Q328 72 379 109T508 260L373 717ZM428 852Q514 932 560 1046T606 1286Q606 1393 537 1393Q472 1393 434 1309T395 1081Q395 958 428 852Z" />
<glyph unicode="&apos;" glyph-name="quotesingle" horiz-adv-x="350" d="M412 1462L274 934H213L295 1462H412Z" />
<glyph unicode="(" glyph-name="parenleft" horiz-adv-x="508" d="M102 219Q102 555 232 876T606 1462H682Q447 1175 327 861T207 219Q207 73 231 -72T301 -324H225Q170 -227 136 -77T102 219Z" />
<glyph unicode=")" glyph-name="parenright" horiz-adv-x="508" d="M498 920Q498 587 370 267T-6 -324H-82Q153 -37 273 277T393 920Q393 1067 369 1213T299 1462H375Q430 1364 464 1215T498 920Z" />
<glyph unicode="*" glyph-name="asterisk" horiz-adv-x="672" d="M578 1546L520 1315L743 1339V1235L528 1257L645 1024L549 993L479 1231L338 1020L256 1075L426 1270L221 1307L250 1405L461 1323L465 1563L578 1546Z" />
<glyph unicode="+" glyph-name="plus" horiz-adv-x="737" d="M485 782H764V709H485V373H408V709H131V782H408V1120H485V782Z" />
<glyph unicode="," glyph-name="comma" horiz-adv-x="379" d="M289 182Q187 -32 45 -264H-20Q21 -176 76 -40T166 205H281L289 182Z" />
<glyph unicode="-" glyph-name="hyphen" horiz-adv-x="465" d="M94 502L117 604H485L463 502H94Z" />
<glyph unicode="." glyph-name="period" horiz-adv-x="379" d="M98 53Q98 114 126 155T201 197Q228 197 243 176T258 121Q258 60 231 22T160 -16Q135 -16 117 1T98 53Z" />
<glyph unicode="/" glyph-name="slash" horiz-adv-x="641" d="M838 1462L59 0H-33L745 1462H838Z" />
<glyph unicode="0" glyph-name="zero" horiz-adv-x="737" d="M791 1178Q791 981 749 747T635 334T477 67T295 -20Q193 -20 144 57T94 289Q94 538 168 846T352 1318T590 1483Q687 1483 739 1406T791 1178ZM584 1389Q488 1389 402 1226T254 778T193 289Q193 180
218 127T303 74Q399 74 485 231T631 673T692 1178Q692 1278 668 1333T584 1389Z" />
<glyph unicode="1" glyph-name="one" horiz-adv-x="737" d="M383 0H287L512 1063L545 1211L578 1346Q551 1317 523 1290T332 1126L287 1194L600 1462H692L383 0Z" />
<glyph unicode="2" glyph-name="two" horiz-adv-x="737" d="M575 0H-8L2 78L354 512Q515 709 575 805T671 997T707 1196Q707 1393 543 1393Q494 1393 448 1376T332 1309L287 1386Q342 1425 407 1454T555 1483Q673 1483 739 1411T805 1206Q805 1064 727 900T442
483L121 90H594L575 0Z" />
<glyph unicode="3" glyph-name="three" horiz-adv-x="737" d="M805 1206Q805 1034 722 916T498 764L496 758Q666 695 666 463Q666 325 614 214T468 41T254 -20Q101 -20 16 29V137Q109 68 242 68Q342 68 415 116T527 252T567 449Q567 580 511 645T348 711H283L301
803H360Q509 803 609 915T709 1194Q709 1288 667 1341T545 1395Q479 1395 426 1373T315 1307L270 1378Q328 1424 394 1453T547 1483Q666 1483 735 1407T805 1206Z" />
<glyph unicode="4" glyph-name="four" horiz-adv-x="737" d="M705 332H565L494 0H399L471 332H16L33 416L684 1479H809L584 422H723L705 332ZM489 422L645 1142L700 1366H692L667 1318L592 1178L131 422H489Z" />
<glyph unicode="5" glyph-name="five" horiz-adv-x="737" d="M596 492Q596 633 543 712T379 791Q346 791 316 786T219 758L180 821L358 1462H815L795 1368H430L285 860Q341 874 403 874Q543 874 618 780T694 508Q694 357 638 236T476 48T229 -20Q165 -20 107 -6T16
27V137Q92 68 233 68Q396 68 496 184T596 492Z" />
<glyph unicode="6" glyph-name="six" horiz-adv-x="737" d="M104 317Q104 609 189 894T406 1331T696 1483Q787 1483 840 1460L813 1366Q767 1389 698 1389Q550 1389 435 1224T240 741H246Q292 816 361 859T512 903Q608 903 664 826T721 621Q721 452 668 296T527
60T332 -20Q226 -20 165 69T104 317ZM344 72Q421 72 483 140T586 345T627 608Q627 702 590 756T485 811Q400 811 333 751T231 592T197 317Q197 202 236 137T344 72Z" />
<glyph unicode="7" glyph-name="seven" horiz-adv-x="737" d="M125 0L762 1368H244L262 1462H877L866 1380L227 0H125Z" />
<glyph unicode="8" glyph-name="eight" horiz-adv-x="737" d="M35 287Q35 456 117 572T375 776Q304 855 271 938T238 1122Q238 1279 330 1381T571 1483Q684 1483 752 1410T821 1210Q821 1068 741 953T514 760Q608 666 647 573T686 377Q686 203 589 92T334 -20Q190
-20 113 61T35 287ZM588 373Q588 468 553 547T430 717Q268 633 201 534T133 293Q133 194 187 132T332 70Q450 70 519 151T588 373ZM336 1116Q336 1024 367 952T459 815Q589 883 657 981T725 1192Q725 1285 683 1339T565 1393Q456 1393 396 1320T336 1116Z" />
<glyph unicode="9" glyph-name="nine" horiz-adv-x="737" d="M784 1163Q784 853 706 565T497 129T203 -20Q105 -20 49 2V96Q98 74 203 74Q356 74 469 239T651 723H645Q599 649 529 604T381 559Q286 559 228 644T170 866Q170 1032 224 1182T365 1408T561 1483Q670
1483 727 1401T784 1163ZM549 1391Q470 1391 407 1324T303 1128T262 877Q262 769 299 710T403 651Q487 651 555 713T658 885T692 1151Q692 1264 656 1327T549 1391Z" />
<glyph unicode=":" glyph-name="colon" horiz-adv-x="379" d="M70 53Q70 113 97 155T172 197Q199 197 214 176T229 121Q229 60 202 22T131 -16Q106 -16 88 1T70 53ZM260 944Q260 1005 288 1046T362 1087Q393 1087 406 1064T420 1012Q420 952 393 913T322 874Q297
874 279 892T260 944Z" />
<glyph unicode=";" glyph-name="semicolon" horiz-adv-x="379" d="M276 182Q179 -25 33 -264H-33Q89 -1 154 205H268L276 182ZM274 944Q274 1005 302 1046T377 1087Q408 1087 421 1064T434 1012Q434 952 407 913T336 874Q311 874 293 892T274 944Z" />
<glyph unicode="&lt;" glyph-name="less" horiz-adv-x="737" d="M709 307L76 711V778L709 1178V1077L168 743L709 410V307Z" />
<glyph unicode="=" glyph-name="equal" horiz-adv-x="737" d="M768 547V465H135V547H768ZM768 977V895H135V977H768Z" />
<glyph unicode="&gt;" glyph-name="greater" horiz-adv-x="737" d="M170 389L711 723L170 1057V1157L803 758V690L170 287V389Z" />
<glyph unicode="?" glyph-name="question" horiz-adv-x="520" d="M164 367L174 418Q214 617 350 801L420 895Q507 1013 535 1088T563 1247Q563 1323 528 1358T438 1393Q398 1393 365 1382T274 1329L236 1407Q343 1483 446 1483Q550 1483 607 1423T664 1257Q664
1187 646 1126T594 1006T461 817Q378 711 341 647T277 514T238 367H164ZM72 53Q72 113 99 155T174 197Q201 197 216 176T231 121Q231 60 204 22T133 -16Q108 -16 90 1T72 53Z" />
<glyph unicode="@" glyph-name="at" horiz-adv-x="1110" d="M1137 1024Q1137 857 1086 659T959 348T799 236Q742 236 714 268T686 354Q686 396 696 444Q623 231 504 231Q393 231 393 410Q393 554 446 722T578 976T750 1061Q830 1061 891 1032L773 561Q748 464
748 412Q748 315 813 315Q864 315 918 423T1014 710T1055 1012Q1055 1196 995 1292T813 1389Q657 1389 516 1244T287 842T199 291Q199 106 267 3T455 -100Q513 -100 567 -85T657 -47L668 -125Q564 -180 446 -180Q294 -180 203 -58T111 279Q111 607 210 881T478
1314T834 1473Q974 1473 1055 1355T1137 1024ZM725 981Q665 981 609 902T515 687T477 428Q477 319 535 319Q579 319 619 402T707 666L788 973Q764 981 725 981Z" />
<glyph unicode="A" glyph-name="A" horiz-adv-x="731" d="M555 0V530H248L27 0H-78L528 1468H651V0H555ZM555 629V999L561 1354Q546 1302 509 1202T283 629H555Z" />
<glyph unicode="B" glyph-name="B" horiz-adv-x="817" d="M375 1462H600Q730 1462 808 1387T887 1188Q887 1021 813 909T608 772L606 766Q679 747 724 677T770 510Q770 359 719 243T571 64T338 0H66L375 1462ZM336 813H483Q573 813 641 859T746 988T784 1176Q784
1273 733 1319T578 1366H455L336 813ZM317 719L184 94H342Q496 94 582 201T668 494Q668 598 617 658T475 719H317Z" />
<glyph unicode="C" glyph-name="C" horiz-adv-x="727" d="M739 1389Q609 1389 494 1260T306 905T233 467Q233 263 284 168T457 72Q533 72 629 111V16Q535 -20 442 -20Q289 -20 212 95T135 449Q135 705 220 953T446 1343T750 1485Q872 1485 946 1423L885 1337Q825
1389 739 1389Z" />
<glyph unicode="D" glyph-name="D" horiz-adv-x="895" d="M913 1047Q913 747 831 503T601 129T256 0H66L375 1462H592Q746 1462 829 1357T913 1047ZM276 94Q427 94 546 210T737 555T809 1047Q809 1366 578 1366H455L184 94H276Z" />
<glyph unicode="E" glyph-name="E" horiz-adv-x="709" d="M543 0H66L375 1462H852L831 1366H455L338 813H692L672 719H317L184 94H561L543 0Z" />
<glyph unicode="F" glyph-name="F" horiz-adv-x="655" d="M166 0H66L375 1462H854L834 1366H455L326 752H682L662 657H305L166 0Z" />
<glyph unicode="G" glyph-name="G" horiz-adv-x="967" d="M645 741H940L788 33Q651 -20 500 -20Q135 -20 135 438Q135 622 186 827T324 1184T523 1410T764 1485Q934 1485 1065 1391L1001 1303Q933 1353 877 1371T758 1389Q647 1389 554 1317T389 1109T275 788T233
432Q233 241 301 157T510 72Q610 72 702 100L819 647H625L645 741Z" />
<glyph unicode="H" glyph-name="H" horiz-adv-x="924" d="M702 0H604L756 717H315L164 0H66L375 1462H473L336 815H776L913 1462H1012L702 0Z" />
<glyph unicode="I" glyph-name="I" horiz-adv-x="418" d="M66 0L375 1462H473L164 0H66Z" />
<glyph unicode="J" glyph-name="J" horiz-adv-x="360" d="M-113 -369Q-183 -369 -227 -344L-199 -252Q-157 -272 -109 -272Q-41 -272 -4 -217T59 -35L377 1462H475L154 -57Q120 -218 56 -293T-113 -369Z" />
<glyph unicode="K" glyph-name="K" horiz-adv-x="743" d="M666 0H565L416 709L287 580L164 0H66L375 1462H473L309 688L432 868L848 1462H948L496 795L666 0Z" />
<glyph unicode="L" glyph-name="L" horiz-adv-x="639" d="M66 0L375 1462H473L184 94H543L524 0H66Z" />
<glyph unicode="M" glyph-name="M" horiz-adv-x="1255" d="M494 0L442 1331H436L392 1091L162 0H66L375 1462H535L569 354L573 190L571 102H573Q590 152 680 352L1174 1462H1343L1034 0H934L1172 1122L1221 1329H1217L621 0H494Z" />
<glyph unicode="N" glyph-name="N" horiz-adv-x="981" d="M760 0H639L438 1311H430Q416 1196 385 1049L164 0H66L375 1462H506L698 166H705L719 252L754 440L971 1462H1069L760 0Z" />
<glyph unicode="O" glyph-name="O" horiz-adv-x="958" d="M412 -20Q135 -20 135 379Q135 575 181 793T305 1169T484 1405T702 1483Q977 1483 977 1100Q977 816 897 543T690 125T412 -20ZM233 377Q233 74 420 74Q512 74 593 154T738 384T840 734T879 1100Q879 1389
692 1389Q601 1389 521 1316T376 1095T273 745T233 377Z" />
<glyph unicode="P" glyph-name="P" horiz-adv-x="772" d="M858 1155Q858 998 801 872T637 675T387 604H291L164 0H66L375 1462H545Q690 1462 774 1379T858 1155ZM311 698H381Q559 698 656 813T754 1139Q754 1246 696 1306T530 1366H453L311 698Z" />
<glyph unicode="Q" glyph-name="Q" horiz-adv-x="958" d="M412 -20Q135 -20 135 379Q135 575 181 793T305 1169T484 1405T702 1483Q977 1483 977 1081Q977 849 917 610T759 215T541 8L655 -348H539L442 -18L412 -20ZM233 371Q233 74 420 74Q544 74 648 221T815
625T879 1108Q879 1389 692 1389Q565 1389 462 1249T296 851T233 371Z" />
<glyph unicode="R" glyph-name="R" horiz-adv-x="795" d="M299 639L164 0H66L375 1462H555Q695 1462 775 1380T856 1153Q856 1033 818 925T708 746T547 657L668 0H561L444 639H299ZM317 729H422Q579 729 666 837T754 1145Q754 1252 696 1309T530 1366H453L317 729Z" />
<glyph unicode="S" glyph-name="S" horiz-adv-x="727" d="M655 399Q655 203 551 92T264 -20Q185 -20 116 -3T10 37V145Q131 74 272 74Q405 74 479 160T553 397Q553 461 537 512T493 607T383 739Q305 822 275 869T229 968T213 1085Q213 1199 261 1291T397 1433T602
1483Q667 1483 738 1465T844 1423L791 1329Q700 1386 592 1386Q508 1386 446 1349T349 1246T315 1100Q315 1025 345 962T461 813Q553 719 585 666T636 549T655 399Z" />
<glyph unicode="T" glyph-name="T" horiz-adv-x="639" d="M291 0H190L479 1366H223L244 1462H856L836 1366H580L291 0Z" />
<glyph unicode="U" glyph-name="U" horiz-adv-x="911" d="M1012 1462L797 459Q742 206 646 93T385 -20Q260 -20 195 58T129 276Q129 351 147 440L367 1462H465L244 428Q225 348 225 276Q225 74 397 74Q511 74 583 164T698 457L913 1462H1012Z" />
<glyph unicode="V" glyph-name="V" horiz-adv-x="729" d="M850 1462H950L340 0H231V1462H330V553Q330 386 307 121Q341 226 432 455L850 1462Z" />
<glyph unicode="W" glyph-name="W" horiz-adv-x="1270" d="M1376 1462H1477L889 0H768L815 1094L831 1333L752 1096L326 0H205L231 1462H332L305 455Q298 244 287 111L313 185L412 451L801 1462H909L877 492Q866 239 852 111Q937 352 979 455L1376 1462Z" />
<glyph unicode="X" glyph-name="X" horiz-adv-x="651" d="M547 0H446L393 666L45 0H-57L362 791L281 1462H381L449 856L756 1462H856L479 743L547 0Z" />
<glyph unicode="Y" glyph-name="Y" horiz-adv-x="616" d="M379 707L745 1462H848L401 571L281 0H180L301 571L227 1462H328L379 707Z" />
<glyph unicode="Z" glyph-name="Z" horiz-adv-x="580" d="M465 0H-25L-6 88L635 1366H268L289 1462H762L743 1372L92 94H483L465 0Z" />
<glyph unicode="[" glyph-name="bracketleft" horiz-adv-x="580" d="M383 -324H25L406 1462H764L743 1372H481L139 -233H403L383 -324Z" />
<glyph unicode="\" glyph-name="backslash" horiz-adv-x="641" d="M365 1462L528 0H432L270 1462H365Z" />
<glyph unicode="]" glyph-name="bracketright" horiz-adv-x="580" d="M-43 -233H217L559 1372H295L315 1462H674L293 -324H-63L-43 -233Z" />
<glyph unicode="^" glyph-name="asciicircum" horiz-adv-x="737" d="M692 758L569 1348L217 758H111L543 1462H625L784 758H692Z" />
<glyph unicode="_" glyph-name="underscore" horiz-adv-x="758" d="M729 -266H-35L-18 -184H745L729 -266Z" />
<glyph unicode="`" glyph-name="grave" horiz-adv-x="1014" d="M743 1241Q695 1298 642 1392T571 1552V1569H698Q724 1413 782 1260V1241H743Z" />
<glyph unicode="a" glyph-name="a" horiz-adv-x="817" d="M319 -20Q119 -20 119 262Q119 471 181 676T343 993T561 1106Q695 1106 735 956H741L780 1085H860L631 0H555L573 156H569Q455 -20 319 -20ZM338 63Q428 63 506 167T638 471T692 848Q692 931 657 973T557
1016Q469 1016 394 915T268 617T217 248Q217 157 243 110T338 63Z" />
<glyph unicode="b" glyph-name="b" horiz-adv-x="803" d="M612 1106Q813 1106 813 823Q813 612 750 408T588 92T371 -20Q303 -20 256 21T197 131H190L145 0H72L399 1556H494L375 1001L354 920H358Q410 1011 476 1058T612 1106ZM594 1022Q500 1022 421 918T291
624T240 252Q240 66 375 66Q463 66 538 169T664 469T715 838Q715 929 689 975T594 1022Z" />
<glyph unicode="c" glyph-name="c" horiz-adv-x="588" d="M358 -20Q242 -20 181 60T119 291Q119 508 182 704T345 1003T569 1106Q655 1106 713 1073L674 987Q621 1016 561 1016Q469 1016 393 919T267 642T217 289Q217 66 377 66Q440 66 520 106V20Q445 -20 358 -20Z" />
<glyph unicode="d" glyph-name="d" horiz-adv-x="817" d="M319 -20Q119 -20 119 262Q119 471 181 676T343 993T561 1106Q630 1106 676 1064T735 954H741L866 1556H961L631 0H555L573 156H569Q455 -20 319 -20ZM338 63Q428 63 506 165T638 465T692 844Q692 929
660 972T557 1016Q469 1016 394 915T268 617T217 248Q217 157 243 110T338 63Z" />
<glyph unicode="e" glyph-name="e" horiz-adv-x="723" d="M373 -20Q253 -20 186 63T119 297Q119 511 179 698T343 996T561 1106Q648 1106 695 1056T743 903Q743 780 684 688T514 551T250 506H238Q217 407 217 307Q217 66 401 66Q448 66 489 79T584 123V27Q500
-20 373 -20ZM545 1018Q456 1018 376 900T250 588Q649 588 649 905Q649 958 627 988T545 1018Z" />
<glyph unicode="f" glyph-name="f" horiz-adv-x="408" d="M-113 -492Q-164 -492 -201 -481V-389Q-164 -401 -117 -401Q-70 -401 -44 -375T3 -286T51 -100L287 1001H166L176 1055L307 1096L328 1194Q357 1337 391 1417T472 1532T598 1567Q664 1567 709 1542L668
1454Q626 1475 586 1475Q539 1475 514 1449T467 1359T401 1085H545L526 1001H383L143 -106Q109 -266 78 -345T5 -458T-113 -492Z" />
<glyph unicode="g" glyph-name="g" horiz-adv-x="668" d="M821 1085L807 1018L670 1001Q700 944 700 858Q700 749 656 634T538 453T375 387H350L328 389Q203 302 203 231Q203 208 211 194T236 170T354 129Q480 90 531 31T582 -129Q582 -290 476 -391T203 -492Q71
-492 -1 -425T-74 -236Q-74 -131 -9 -45T176 96Q113 138 113 209Q113 261 145 310T260 418Q174 490 174 627Q174 750 223 867T348 1045T516 1106Q580 1106 614 1085H821ZM16 -229Q16 -327 65 -370T211 -414Q333 -414 413 -340T494 -147Q494 -83 454 -36T330 35L240
59Q144 27 80 -54T16 -229ZM266 612Q266 538 294 500T377 461Q439 461 489 513T573 671T606 874Q606 1028 498 1028Q437 1028 386 972T300 808T266 612Z" />
<glyph unicode="h" glyph-name="h" horiz-adv-x="784" d="M504 0L676 815Q686 855 686 899Q686 1012 586 1012Q481 1012 410 911T295 596L168 0H74L403 1556H498L399 1102L358 934H362Q455 1106 604 1106Q688 1106 734 1058T780 918Q780 862 766 797L598 0H504Z" />
<glyph unicode="i" glyph-name="i" horiz-adv-x="348" d="M162 0H68L299 1085H393L162 0ZM346 1356Q346 1407 369 1444T428 1481Q475 1481 475 1423Q475 1366 453 1329T395 1292Q346 1292 346 1356Z" />
<glyph unicode="j" glyph-name="j" horiz-adv-x="348" d="M346 1356Q346 1407 369 1444T428 1481Q475 1481 475 1423Q475 1366 453 1329T395 1292Q346 1292 346 1356ZM299 1085H393L139 -106Q105 -266 74 -344T1 -457T-117 -492Q-168 -492 -205 -481V-389Q-168
-401 -121 -401Q-74 -401 -48 -375T-1 -286T47 -100L299 1085Z" />
<glyph unicode="k" glyph-name="k" horiz-adv-x="639" d="M276 549L324 608L406 713L676 1085H778L471 655L567 0H469L385 573L258 434L166 0H72L403 1556H498L319 739Q311 699 274 549H276Z" />
<glyph unicode="l" glyph-name="l" horiz-adv-x="346" d="M166 0H72L403 1556H498L166 0Z" />
<glyph unicode="m" glyph-name="m" horiz-adv-x="1171" d="M891 0L1063 813Q1073 860 1073 897Q1073 1012 979 1012Q897 1012 833 941T745 752L588 0H494L662 799Q674 857 674 897Q674 1012 575 1012Q474 1012 407 916T293 596L166 0H72L301 1085H381L356 934H360Q451
1106 600 1106Q673 1106 714 1070T766 956Q817 1031 873 1068T1004 1106Q1081 1106 1123 1056T1165 907Q1165 850 1151 786L985 0H891Z" />
<glyph unicode="n" glyph-name="n" horiz-adv-x="782" d="M502 0L674 815Q684 855 684 899Q684 1012 584 1012Q479 1012 408 911T293 596L166 0H72L301 1085H381L356 934H360Q453 1106 602 1106Q686 1106 732 1058T778 918Q778 862 764 797L596 0H502Z" />
<glyph unicode="o" glyph-name="o" horiz-adv-x="780" d="M340 -20Q233 -20 176 60T119 287Q119 429 155 592T249 868T385 1044T559 1106Q665 1106 724 1024T784 791Q784 652 748 493T652 219T514 42T340 -20ZM217 268Q217 66 352 66Q441 66 516 167T638 454T686
811Q686 1016 547 1016Q463 1016 390 918T267 632T217 268Z" />
<glyph unicode="p" glyph-name="p" horiz-adv-x="803" d="M614 1106Q815 1106 815 823Q815 613 752 409T590 92T373 -20Q305 -20 258 21T199 131H193L68 -471H-27L303 1085H385L360 930H365Q479 1106 614 1106ZM596 1022Q502 1022 423 918T293 624T242 252Q242
66 377 66Q465 66 540 169T666 469T717 838Q717 929 691 975T596 1022Z" />
<glyph unicode="q" glyph-name="q" horiz-adv-x="817" d="M319 -20Q119 -20 119 262Q119 471 181 676T343 993T561 1106Q695 1106 735 956H741L780 1085H860L526 -492H432L535 -4L578 158H573Q458 -20 319 -20ZM338 63Q428 63 506 167T638 471T692 848Q692 931
657 973T557 1016Q469 1016 394 915T268 617T217 248Q217 157 243 110T338 63Z" />
<glyph unicode="r" glyph-name="r" horiz-adv-x="504" d="M582 1106Q621 1106 655 1094L629 997Q599 1012 563 1012Q478 1012 405 895T289 575L166 0H72L301 1085H371L342 895H346Q434 1106 582 1106Z" />
<glyph unicode="s" glyph-name="s" horiz-adv-x="594" d="M229 -20Q173 -20 112 -6T29 25V135Q53 111 109 91T223 70Q320 70 374 126T428 287Q428 331 417 367T389 435T311 532Q246 603 223 639T187 718T174 815Q174 945 254 1025T461 1106Q597 1106 680 1044L629
958Q558 1016 457 1016Q375 1016 322 965T268 827Q268 768 289 720T371 606Q443 528 468 488T509 401T524 297Q524 145 448 63T229 -20Z" />
<glyph unicode="t" glyph-name="t" horiz-adv-x="403" d="M328 80V0Q272 -20 223 -20Q96 -20 96 131Q96 169 109 231L272 1001H174L186 1057L289 1085L369 1343H438L383 1085H526L508 1001H365L207 258Q193 194 193 152Q193 107 209 88T262 68Q293 68 328 80Z" />
<glyph unicode="u" glyph-name="u" horiz-adv-x="786" d="M395 1085L233 330Q215 252 215 195Q215 72 309 72Q518 72 606 489L733 1085H827L596 0H522L530 135H526Q425 -20 287 -20Q123 -20 123 178Q123 257 143 344L301 1085H395Z" />
<glyph unicode="v" glyph-name="v" horiz-adv-x="588" d="M178 0V1085H272V426Q272 388 268 285T256 123H262Q283 185 313 264T651 1085H750L291 0H178Z" />
<glyph unicode="w" glyph-name="w" horiz-adv-x="1012" d="M608 0L637 735L649 963Q609 845 595 805T287 0H170L190 1085H285L272 453Q268 277 250 123H254Q262 151 293 238T618 1085H727L711 453Q708 363 696 191L692 123H696L756 280L1069 1085H1165L729 0H608Z" />
<glyph unicode="x" glyph-name="x" horiz-adv-x="608" d="M313 571L221 1085H317L387 651L637 1085H737L410 547L518 0H422L342 461L74 0H-27L313 571Z" />
<glyph unicode="y" glyph-name="y" horiz-adv-x="588" d="M-68 -492Q-114 -492 -158 -473V-387Q-121 -403 -70 -403Q-16 -403 22 -360T117 -186L188 -16L180 1085H274V446Q274 285 262 123H268Q321 280 365 387L653 1085H752L190 -244Q132 -382 74 -437T-68 -492Z" />
<glyph unicode="z" glyph-name="z" horiz-adv-x="487" d="M389 0H-4L10 76L485 1001H221L240 1085H604L588 1008L111 84H408L389 0Z" />
<glyph unicode="{" glyph-name="braceleft" horiz-adv-x="664" d="M838 1462L819 1382Q706 1380 655 1334T582 1184L506 831Q483 720 424 657T256 571V567Q333 550 369 508T406 395Q406 362 395 307L328 -8Q317 -63 317 -94Q317 -169 352 -205T469 -244V-324Q340
-320 282 -264T223 -100Q223 -55 236 -4L303 319Q311 351 311 389Q311 535 125 535L141 604Q260 604 323 658T410 819L489 1190Q519 1335 600 1398T838 1462Z" />
<glyph unicode="|" glyph-name="bar" horiz-adv-x="737" d="M225 -492H133L567 1556H659L225 -492Z" />
<glyph unicode="}" glyph-name="braceright" horiz-adv-x="664" d="M-59 -324L-41 -244Q71 -242 123 -197T197 -45L272 307Q295 419 354 482T522 567V571Q445 588 409 630T373 743Q373 783 383 831L451 1147Q461 1197 461 1233Q461 1307 426 1343T309 1382V1462Q438
1459 496 1403T555 1239Q555 1195 543 1143L475 819Q467 787 467 750Q467 604 653 604L637 535Q518 535 455 481T369 319L289 -51Q259 -197 178 -260T-59 -324Z" />
<glyph unicode="~" glyph-name="asciitilde" horiz-adv-x="737" d="M602 625Q521 625 434 680Q396 702 360 720T281 739Q210 739 111 618V717Q197 823 299 823Q348 823 394 804T490 755Q563 711 621 711Q664 711 703 740T788 827V729Q706 625 602 625Z" />
<glyph unicode="&#xa0;" glyph-name="nbspace" horiz-adv-x="479" />
<glyph unicode="&#xa1;" glyph-name="exclamdown" horiz-adv-x="477" d="M317 705H379L176 -391H53L317 705ZM487 1018Q487 958 460 916T385 874Q358 874 343 895T328 950Q328 1011 355 1049T426 1087Q451 1087 469 1070T487 1018Z" />
<glyph unicode="&#xa2;" glyph-name="cent" horiz-adv-x="737" d="M301 -20L348 199Q193 243 193 487Q193 683 245 869T385 1169T584 1309L621 1483H705L670 1313Q740 1307 786 1282L748 1196Q695 1225 635 1225Q542 1225 466 1125T340 843T291 489Q291 374 328
324T438 274Q483 274 515 287T571 313L594 229Q568 213 522 202T430 188L385 -20H301Z" />
<glyph unicode="&#xa3;" glyph-name="sterling" horiz-adv-x="737" d="M680 1483Q740 1483 786 1466T887 1401L823 1323Q760 1393 672 1393Q591 1393 544 1327T467 1120L393 768H616L598 682H375L313 395Q266 172 154 94H610L590 0H8L27 82Q90 110 139 189T215
393L276 682H135L154 768H295L377 1153Q411 1311 483 1397T680 1483Z" />
<glyph unicode="&#xa4;" glyph-name="currency" horiz-adv-x="1022" d="M227 723Q227 841 305 944L184 1067L236 1118L356 995Q460 1077 582 1077Q704 1077 803 997L924 1118L977 1067L856 946Q936 847 936 723Q936 599 856 500L977 377L926 326L803 446Q700 369
582 369Q455 369 356 449L238 326L184 381L305 500Q227 603 227 723ZM309 723Q309 611 387 531T582 451Q698 451 776 531T854 723Q854 836 775 915T582 995Q468 995 389 916T309 723Z" />
<glyph unicode="&#xa5;" glyph-name="yen" horiz-adv-x="737" d="M358 655L322 1462H414L438 717L776 1462H870L494 655H674L655 573H455L414 373H612L596 291H397L334 0H238L299 291H104L121 373H315L356 573H164L182 655H358Z" />
<glyph unicode="&#xa6;" glyph-name="brokenbar" horiz-adv-x="737" d="M492 758H399L567 1556H659L492 758ZM225 -492H133L303 307H395L225 -492Z" />
<glyph unicode="&#xa7;" glyph-name="section" horiz-adv-x="629" d="M553 1556Q680 1556 762 1493L713 1419Q637 1477 553 1477Q463 1477 408 1424T352 1292Q352 1237 376 1197T481 1100Q570 1036 605 982T641 866Q641 776 601 708T467 584Q547 504 547 406Q547
313 506 244T395 136T240 98Q174 98 116 111T27 147V248Q64 217 123 199T240 180Q327 180 389 239T451 391Q451 427 442 455T413 507T338 573Q227 654 190 710T152 831Q152 1002 348 1092Q300 1137 280 1183T260 1284Q260 1399 343 1477T553 1556ZM545 850Q545
904 520 942T436 1020L406 1042Q244 980 244 844Q244 785 286 738T418 635Q545 718 545 850Z" />
<glyph unicode="&#xa8;" glyph-name="dieresis" horiz-adv-x="1014" d="M453 1362Q453 1411 475 1443T535 1475Q582 1475 582 1417Q582 1364 561 1331T502 1298Q453 1298 453 1362ZM725 1362Q725 1411 748 1443T807 1475Q854 1475 854 1417Q854 1364 833 1331T774
1298Q725 1298 725 1362Z" />
<glyph unicode="&#xa9;" glyph-name="copyright" horiz-adv-x="1704" d="M971 1092Q829 1092 749 998T668 733Q668 547 742 458T963 369Q1047 369 1161 412V324Q1059 279 952 279Q765 279 664 395T563 725Q563 933 674 1057T971 1182Q1090 1182 1198 1130L1161
1047Q1063 1092 971 1092ZM174 731Q174 931 274 1106T549 1382T926 1483Q1125 1483 1299 1384T1575 1109T1677 731Q1677 532 1579 358T1306 82T926 -20Q719 -20 544 83T272 360T174 731ZM266 731Q266 549 358 396T601 158T926 72Q1104 72 1255 160T1496 401T1585
731Q1585 905 1500 1056T1261 1299T926 1391Q748 1391 596 1302T355 1062T266 731Z" />
<glyph unicode="&#xaa;" glyph-name="ordfeminine" horiz-adv-x="510" d="M426 817L428 901H422Q384 848 347 827T264 805Q212 805 178 843T143 944Q143 1050 207 1114T389 1190L487 1200L502 1270Q510 1302 510 1335Q510 1379 490 1394T436 1409Q390 1409 333
1381L309 1370L289 1436Q320 1452 367 1465T459 1479Q592 1479 592 1360Q592 1324 580 1272L483 817H426ZM225 950Q225 874 293 874Q348 874 394 927T459 1069L473 1135L414 1128Q225 1109 225 950Z" />
<glyph unicode="&#xab;" glyph-name="guillemotleft" horiz-adv-x="770" d="M465 907L522 866L246 526L371 176L307 147L127 514L131 541L465 907ZM776 907L831 866L557 526L680 176L618 147L436 514L440 541L776 907Z" />
<glyph unicode="&#xac;" glyph-name="logicalnot" horiz-adv-x="737" d="M737 776V315H664V694H104V776H737Z" />
<glyph unicode="&#xad;" glyph-name="uni00AD" horiz-adv-x="465" d="M94 502L117 604H485L463 502H94Z" />
<glyph unicode="&#xae;" glyph-name="registered" horiz-adv-x="1704" d="M782 731H895Q986 731 1038 777T1090 913Q1090 1085 893 1085H782V731ZM1194 918Q1194 839 1155 778T1044 684L1282 291H1161L950 651H782V291H682V1171H893Q1035 1171 1114 1109T1194
918ZM174 731Q174 931 274 1106T549 1382T926 1483Q1125 1483 1299 1384T1575 1109T1677 731Q1677 532 1579 358T1306 82T926 -20Q719 -20 544 83T272 360T174 731ZM266 731Q266 549 358 396T601 158T926 72Q1104 72 1255 160T1496 401T1585 731Q1585 905 1500
1056T1261 1299T926 1391Q748 1391 596 1302T355 1062T266 731Z" />
<glyph unicode="&#xaf;" glyph-name="overscore" horiz-adv-x="758" d="M999 1556H227L246 1638H1018L999 1556Z" />
<glyph unicode="&#xb0;" glyph-name="degree" horiz-adv-x="764" d="M240 1184Q240 1316 326 1399T539 1483Q667 1483 752 1398T838 1184Q838 1055 753 970T539 885Q409 885 325 968T240 1184ZM324 1184Q324 1089 387 1025T539 961Q626 961 690 1024T754 1184Q754
1280 691 1343T539 1407Q447 1407 386 1343T324 1184Z" />
<glyph unicode="&#xb1;" glyph-name="plusminus" horiz-adv-x="737" d="M41 74H674V0H41V74ZM393 688H674V614H393V264H319V614H41V688H319V1038H393V688Z" />
<glyph unicode="&#xb2;" glyph-name="twosuperior" horiz-adv-x="494" d="M471 586H51L59 664L347 973Q430 1059 471 1137T512 1292Q512 1348 484 1377T410 1407Q368 1407 335 1393T248 1333L209 1403Q260 1447 309 1466T420 1485Q503 1485 551 1433T600 1296Q600
1226 575 1165T506 1042T330 844L162 666H487L471 586Z" />
<glyph unicode="&#xb3;" glyph-name="threesuperior" horiz-adv-x="494" d="M600 1292Q600 1203 554 1140T434 1047L432 1038Q528 985 528 862Q528 734 447 652T238 569Q123 569 57 602V690Q97 666 136 656T238 645Q326 645 383 705T440 854Q440 928 400 968T295
1008H240L254 1081H311Q397 1081 454 1139T512 1286Q512 1343 485 1374T408 1405Q358 1405 320 1389T242 1343L207 1413Q248 1442 296 1463T414 1485Q499 1485 549 1432T600 1292Z" />
<glyph unicode="&#xb4;" glyph-name="acute" horiz-adv-x="1014" d="M500 1241V1257Q654 1443 723 1569H862V1552Q820 1489 726 1396T551 1241H500Z" />
<glyph unicode="&#xb5;" glyph-name="mu" horiz-adv-x="782" d="M395 1085L233 330Q215 252 215 195Q215 72 309 72Q518 72 606 489L733 1085H827L596 0H522L530 135H526Q425 -20 295 -20Q206 -20 170 61Q159 -8 149 -63T57 -492H-33L301 1085H395Z" />
<glyph unicode="&#xb6;" glyph-name="paragraph" horiz-adv-x="870" d="M565 -260H477L842 1460H715L350 -260H262L434 553Q412 541 362 541Q302 541 264 602T225 766Q225 973 291 1164T462 1456T696 1556H950L565 -260Z" />
<glyph unicode="&#xb7;" glyph-name="middot" horiz-adv-x="379" d="M186 686Q186 747 214 788T289 829Q320 829 333 806T346 754Q346 694 319 655T248 616Q223 616 205 634T186 686Z" />
<glyph unicode="&#xb8;" glyph-name="cedilla" horiz-adv-x="418" d="M330 -266Q330 -366 262 -429T82 -492Q58 -492 22 -489T-27 -481V-403Q-1 -414 76 -414Q154 -414 198 -378T242 -279Q242 -234 207 -205T90 -160L193 0H274L195 -115Q260 -133 295 -173T330 -266Z" />
<glyph unicode="&#xb9;" glyph-name="onesuperior" horiz-adv-x="494" d="M360 586H274L425 1278L446 1364Q401 1326 378 1309T248 1219L213 1288L457 1462H547L360 586Z" />
<glyph unicode="&#xba;" glyph-name="ordmasculine" horiz-adv-x="557" d="M637 1282Q637 1165 595 1047T488 867T342 805Q259 805 212 855T164 999Q164 1122 206 1241T315 1419T465 1479Q543 1479 590 1430T637 1282ZM457 1409Q399 1409 355 1358T281 1204T252
1004Q252 935 272 903T342 870Q400 870 446 920T521 1072T549 1280Q549 1346 528 1377T457 1409Z" />
<glyph unicode="&#xbb;" glyph-name="guillemotright" horiz-adv-x="770" d="M416 147L358 188L635 528L510 879L573 907L754 541L750 514L416 147ZM104 147L49 188L324 528L201 879L262 907L444 541L440 514L104 147Z" />
<glyph unicode="&#xbc;" glyph-name="onequarter" horiz-adv-x="1286" d="M1150 210H1060L1015 1H937L976 210H675L684 275L1120 883H1204L1077 292H1167L1150 210ZM993 292L1054 574Q1079 695 1093 744L1073 711L993 589L782 292H993ZM378 586H292L443 1278L464
1364Q419 1326 396 1309T266 1219L231 1288L475 1462H565L378 586ZM1315 1462L193 0H96L1219 1462H1315Z" />
<glyph unicode="&#xbd;" glyph-name="onehalf" horiz-adv-x="1286" d="M1186 1H766L774 79L1062 388Q1145 474 1186 552T1227 707Q1227 763 1199 792T1125 822Q1083 822 1050 808T963 748L924 818Q975 862 1024 881T1135 900Q1218 900 1266 848T1315 711Q1315
641 1290 580T1221 457T1045 259L877 81H1202L1186 1ZM378 586H292L443 1278L464 1364Q419 1326 396 1309T266 1219L231 1288L475 1462H565L378 586ZM1303 1462L181 0H84L1207 1462H1303Z" />
<glyph unicode="&#xbe;" glyph-name="threequarters" horiz-adv-x="1286" d="M1193 210H1103L1058 1H980L1019 210H718L727 275L1163 883H1247L1120 292H1210L1193 210ZM1036 292L1097 574Q1122 695 1136 744L1116 711L1036 589L825 292H1036ZM643 1292Q643 1203
597 1140T477 1047L475 1038Q571 985 571 862Q571 734 490 652T281 569Q166 569 100 602V690Q140 666 179 656T281 645Q369 645 426 705T483 854Q483 928 443 968T338 1008H283L297 1081H354Q440 1081 497 1139T555 1286Q555 1343 528 1374T451 1405Q401 1405 363
1389T285 1343L250 1413Q291 1442 339 1463T457 1485Q542 1485 592 1432T643 1292ZM1366 1462L244 0H147L1270 1462H1366Z" />
<glyph unicode="&#xbf;" glyph-name="questiondown" horiz-adv-x="520" d="M467 705Q448 608 434 562T397 464T344 365T211 176Q133 74 103 -7T72 -176Q72 -251 104 -286T190 -322Q230 -322 263 -311T354 -258L393 -336Q286 -412 182 -412Q79 -412 25 -352T-29
-186Q-29 -115 -11 -54T41 67T174 254Q262 367 298 428T359 557T397 705H467ZM563 1018Q563 957 535 916T461 874Q430 874 417 898T403 950Q403 1011 430 1049T502 1087Q527 1087 545 1070T563 1018Z" />
<glyph unicode="&#xc0;" glyph-name="Agrave" horiz-adv-x="731" d="M555 0V530H248L27 0H-78L528 1468H651V0H555ZM555 629V999L561 1354Q546 1302 509 1202T283 629H555ZM640 1579Q592 1636 539 1730T468 1890V1907H595Q621 1751 679 1598V1579H640Z" />
<glyph unicode="&#xc1;" glyph-name="Aacute" horiz-adv-x="731" d="M555 0V530H248L27 0H-78L528 1468H651V0H555ZM555 629V999L561 1354Q546 1302 509 1202T283 629H555ZM520 1579V1595Q674 1781 743 1907H882V1890Q840 1827 746 1734T571 1579H520Z" />
<glyph unicode="&#xc2;" glyph-name="Acircumflex" horiz-adv-x="731" d="M555 0V530H248L27 0H-78L528 1468H651V0H555ZM555 629V999L561 1354Q546 1302 509 1202T283 629H555ZM763 1579Q704 1667 638 1782Q506 1650 419 1579H374L378 1598Q538 1780 617 1907H703Q714
1856 750 1757T814 1598L810 1579H763Z" />
<glyph unicode="&#xc3;" glyph-name="Atilde" horiz-adv-x="731" d="M555 0V530H248L27 0H-78L528 1468H651V0H555ZM555 629V999L561 1354Q546 1302 509 1202T283 629H555ZM738 1589Q703 1589 674 1609T617 1654T564 1699T513 1720Q473 1720 451 1685T411 1587H341Q372
1707 416 1762T521 1817Q557 1817 586 1797T640 1752T690 1707T738 1686Q768 1686 785 1708T826 1821H896Q867 1687 831 1638T738 1589Z" />
<glyph unicode="&#xc4;" glyph-name="Adieresis" horiz-adv-x="731" d="M555 0V530H248L27 0H-78L528 1468H651V0H555ZM555 629V999L561 1354Q546 1302 509 1202T283 629H555ZM423 1700Q423 1749 445 1781T505 1813Q552 1813 552 1755Q552 1702 531 1669T472 1636Q423
1636 423 1700ZM695 1700Q695 1749 718 1781T777 1813Q824 1813 824 1755Q824 1702 803 1669T744 1636Q695 1636 695 1700Z" />
<glyph unicode="&#xc5;" glyph-name="Aring" horiz-adv-x="731" d="M555 0V530H248L27 0H-78L528 1468H651V0H555ZM555 629V999L561 1354Q546 1302 509 1202T283 629H555ZM781 1598Q781 1510 730 1459T591 1407Q501 1407 451 1458T400 1594Q400 1679 450 1729T591
1780Q675 1780 728 1729T781 1598ZM710 1594Q710 1646 679 1680T591 1715Q535 1715 504 1681T472 1594Q472 1540 500 1508T591 1475Q644 1475 677 1507T710 1594Z" />
<glyph unicode="&#xc6;" glyph-name="AE" horiz-adv-x="1036" d="M870 0H393L506 530H270L25 0H-76L608 1462H1180L1159 1366H782L666 813H1022L1001 719H645L512 94H889L870 0ZM313 629H526L682 1364H653L313 629Z" />
<glyph unicode="&#xc7;" glyph-name="Ccedilla" horiz-adv-x="727" d="M739 1389Q609 1389 494 1260T306 905T233 467Q233 263 284 168T457 72Q533 72 629 111V16Q535 -20 442 -20Q289 -20 212 95T135 449Q135 705 220 953T446 1343T750 1485Q872 1485 946 1423L885
1337Q825 1389 739 1389ZM520 -266Q520 -366 452 -429T272 -492Q248 -492 212 -489T163 -481V-403Q189 -414 266 -414Q344 -414 388 -378T432 -279Q432 -234 397 -205T280 -160L383 0H464L385 -115Q450 -133 485 -173T520 -266Z" />
<glyph unicode="&#xc8;" glyph-name="Egrave" horiz-adv-x="709" d="M543 0H66L375 1462H852L831 1366H455L338 813H692L672 719H317L184 94H561L543 0ZM646 1579Q598 1636 545 1730T474 1890V1907H601Q627 1751 685 1598V1579H646Z" />
<glyph unicode="&#xc9;" glyph-name="Eacute" horiz-adv-x="709" d="M543 0H66L375 1462H852L831 1366H455L338 813H692L672 719H317L184 94H561L543 0ZM533 1579V1595Q687 1781 756 1907H895V1890Q853 1827 759 1734T584 1579H533Z" />
<glyph unicode="&#xca;" glyph-name="Ecircumflex" horiz-adv-x="709" d="M543 0H66L375 1462H852L831 1366H455L338 813H692L672 719H317L184 94H561L543 0ZM794 1579Q735 1667 669 1782Q537 1650 450 1579H405L409 1598Q569 1780 648 1907H734Q745 1856 781
1757T845 1598L841 1579H794Z" />
<glyph unicode="&#xcb;" glyph-name="Edieresis" horiz-adv-x="709" d="M543 0H66L375 1462H852L831 1366H455L338 813H692L672 719H317L184 94H561L543 0ZM450 1700Q450 1749 472 1781T532 1813Q579 1813 579 1755Q579 1702 558 1669T499 1636Q450 1636 450 1700ZM722
1700Q722 1749 745 1781T804 1813Q851 1813 851 1755Q851 1702 830 1669T771 1636Q722 1636 722 1700Z" />
<glyph unicode="&#xcc;" glyph-name="Igrave" horiz-adv-x="418" d="M66 0L375 1462H473L164 0H66ZM427 1579Q379 1636 326 1730T255 1890V1907H382Q408 1751 466 1598V1579H427Z" />
<glyph unicode="&#xcd;" glyph-name="Iacute" horiz-adv-x="418" d="M66 0L375 1462H473L164 0H66ZM399 1579V1595Q553 1781 622 1907H761V1890Q719 1827 625 1734T450 1579H399Z" />
<glyph unicode="&#xce;" glyph-name="Icircumflex" horiz-adv-x="418" d="M66 0L375 1462H473L164 0H66ZM603 1579Q544 1667 478 1782Q346 1650 259 1579H214L218 1598Q378 1780 457 1907H543Q554 1856 590 1757T654 1598L650 1579H603Z" />
<glyph unicode="&#xcf;" glyph-name="Idieresis" horiz-adv-x="418" d="M66 0L375 1462H473L164 0H66ZM255 1700Q255 1749 277 1781T337 1813Q384 1813 384 1755Q384 1702 363 1669T304 1636Q255 1636 255 1700ZM527 1700Q527 1749 550 1781T609 1813Q656 1813
656 1755Q656 1702 635 1669T576 1636Q527 1636 527 1700Z" />
<glyph unicode="&#xd0;" glyph-name="Eth" horiz-adv-x="895" d="M913 1047Q913 747 831 503T601 129T256 0H66L215 715H127L145 807H233L375 1462H592Q746 1462 829 1357T913 1047ZM276 94Q427 94 546 210T737 555T809 1047Q809 1366 578 1366H455L334 807H524L506
715H313L184 94H276Z" />
<glyph unicode="&#xd1;" glyph-name="Ntilde" horiz-adv-x="981" d="M760 0H639L438 1311H430Q416 1196 385 1049L164 0H66L375 1462H506L698 166H705L719 252L754 440L971 1462H1069L760 0ZM868 1589Q833 1589 804 1609T747 1654T694 1699T643 1720Q603 1720
581 1685T541 1587H471Q502 1707 546 1762T651 1817Q687 1817 716 1797T770 1752T820 1707T868 1686Q898 1686 915 1708T956 1821H1026Q997 1687 961 1638T868 1589Z" />
<glyph unicode="&#xd2;" glyph-name="Ograve" horiz-adv-x="958" d="M412 -20Q135 -20 135 379Q135 575 181 793T305 1169T484 1405T702 1483Q977 1483 977 1100Q977 816 897 543T690 125T412 -20ZM233 377Q233 74 420 74Q512 74 593 154T738 384T840 734T879
1100Q879 1389 692 1389Q601 1389 521 1316T376 1095T273 745T233 377ZM761 1579Q713 1636 660 1730T589 1890V1907H716Q742 1751 800 1598V1579H761Z" />
<glyph unicode="&#xd3;" glyph-name="Oacute" horiz-adv-x="958" d="M412 -20Q135 -20 135 379Q135 575 181 793T305 1169T484 1405T702 1483Q977 1483 977 1100Q977 816 897 543T690 125T412 -20ZM233 377Q233 74 420 74Q512 74 593 154T738 384T840 734T879
1100Q879 1389 692 1389Q601 1389 521 1316T376 1095T273 745T233 377ZM662 1579V1595Q816 1781 885 1907H1024V1890Q982 1827 888 1734T713 1579H662Z" />
<glyph unicode="&#xd4;" glyph-name="Ocircumflex" horiz-adv-x="958" d="M412 -20Q135 -20 135 379Q135 575 181 793T305 1169T484 1405T702 1483Q977 1483 977 1100Q977 816 897 543T690 125T412 -20ZM233 377Q233 74 420 74Q512 74 593 154T738 384T840 734T879
1100Q879 1389 692 1389Q601 1389 521 1316T376 1095T273 745T233 377ZM877 1579Q818 1667 752 1782Q620 1650 533 1579H488L492 1598Q652 1780 731 1907H817Q828 1856 864 1757T928 1598L924 1579H877Z" />
<glyph unicode="&#xd5;" glyph-name="Otilde" horiz-adv-x="958" d="M412 -20Q135 -20 135 379Q135 575 181 793T305 1169T484 1405T702 1483Q977 1483 977 1100Q977 816 897 543T690 125T412 -20ZM233 377Q233 74 420 74Q512 74 593 154T738 384T840 734T879
1100Q879 1389 692 1389Q601 1389 521 1316T376 1095T273 745T233 377ZM847 1589Q812 1589 783 1609T726 1654T673 1699T622 1720Q582 1720 560 1685T520 1587H450Q481 1707 525 1762T630 1817Q666 1817 695 1797T749 1752T799 1707T847 1686Q877 1686 894 1708T935
1821H1005Q976 1687 940 1638T847 1589Z" />
<glyph unicode="&#xd6;" glyph-name="Odieresis" horiz-adv-x="958" d="M412 -20Q135 -20 135 379Q135 575 181 793T305 1169T484 1405T702 1483Q977 1483 977 1100Q977 816 897 543T690 125T412 -20ZM233 377Q233 74 420 74Q512 74 593 154T738 384T840 734T879
1100Q879 1389 692 1389Q601 1389 521 1316T376 1095T273 745T233 377ZM547 1700Q547 1749 569 1781T629 1813Q676 1813 676 1755Q676 1702 655 1669T596 1636Q547 1636 547 1700ZM819 1700Q819 1749 842 1781T901 1813Q948 1813 948 1755Q948 1702 927 1669T868
1636Q819 1636 819 1700Z" />
<glyph unicode="&#xd7;" glyph-name="multiply" horiz-adv-x="737" d="M446 774L711 1038L764 987L500 723L758 463L707 412L446 672L184 408L133 461L395 723L135 983L186 1034L446 774Z" />
<glyph unicode="&#xd8;" glyph-name="Oslash" horiz-adv-x="958" d="M412 -20Q273 -20 203 82L92 -94L23 -53L162 170Q135 253 135 379Q135 575 181 793T305 1169T484 1405T702 1483Q847 1483 915 1374L1024 1546L1096 1501L956 1280Q977 1200 977 1100Q977 816
897 543T690 125T412 -20ZM233 377Q233 316 238 291L852 1272Q807 1389 692 1389Q601 1389 521 1316T376 1095T273 745T233 377ZM420 74Q512 74 593 154T738 384T840 734T879 1100L877 1153L264 180Q309 74 420 74Z" />
<glyph unicode="&#xd9;" glyph-name="Ugrave" horiz-adv-x="911" d="M1012 1462L797 459Q742 206 646 93T385 -20Q260 -20 195 58T129 276Q129 351 147 440L367 1462H465L244 428Q225 348 225 276Q225 74 397 74Q511 74 583 164T698 457L913 1462H1012ZM717 1579Q669
1636 616 1730T545 1890V1907H672Q698 1751 756 1598V1579H717Z" />
<glyph unicode="&#xda;" glyph-name="Uacute" horiz-adv-x="911" d="M1012 1462L797 459Q742 206 646 93T385 -20Q260 -20 195 58T129 276Q129 351 147 440L367 1462H465L244 428Q225 348 225 276Q225 74 397 74Q511 74 583 164T698 457L913 1462H1012ZM602 1579V1595Q756
1781 825 1907H964V1890Q922 1827 828 1734T653 1579H602Z" />
<glyph unicode="&#xdb;" glyph-name="Ucircumflex" horiz-adv-x="911" d="M1012 1462L797 459Q742 206 646 93T385 -20Q260 -20 195 58T129 276Q129 351 147 440L367 1462H465L244 428Q225 348 225 276Q225 74 397 74Q511 74 583 164T698 457L913 1462H1012ZM871
1579Q812 1667 746 1782Q614 1650 527 1579H482L486 1598Q646 1780 725 1907H811Q822 1856 858 1757T922 1598L918 1579H871Z" />
<glyph unicode="&#xdc;" glyph-name="Udieresis" horiz-adv-x="911" d="M1012 1462L797 459Q742 206 646 93T385 -20Q260 -20 195 58T129 276Q129 351 147 440L367 1462H465L244 428Q225 348 225 276Q225 74 397 74Q511 74 583 164T698 457L913 1462H1012ZM527
1700Q527 1749 549 1781T609 1813Q656 1813 656 1755Q656 1702 635 1669T576 1636Q527 1636 527 1700ZM799 1700Q799 1749 822 1781T881 1813Q928 1813 928 1755Q928 1702 907 1669T848 1636Q799 1636 799 1700Z" />
<glyph unicode="&#xdd;" glyph-name="Yacute" horiz-adv-x="616" d="M379 707L745 1462H848L401 571L281 0H180L301 571L227 1462H328L379 707ZM470 1579V1595Q624 1781 693 1907H832V1890Q790 1827 696 1734T521 1579H470Z" />
<glyph unicode="&#xde;" glyph-name="Thorn" horiz-adv-x="756" d="M473 1462L416 1192H481Q627 1192 714 1108T801 885Q801 722 739 593T572 399T330 334H233L164 0H66L375 1462H473ZM254 428H324Q502 428 599 544T696 868Q696 1096 473 1096H395L254 428Z" />
<glyph unicode="&#xdf;" glyph-name="germandbls" horiz-adv-x="741" d="M623 1567Q712 1567 762 1510T813 1358Q813 1283 782 1213T662 1038Q591 954 568 903T545 803Q545 749 569 694T621 578Q647 521 667 458T688 319Q688 169 606 75T389 -20Q338 -20 295 -7T229
25V125Q306 70 393 70Q484 70 538 134T592 307Q592 407 541 524L510 592Q449 713 449 793Q449 865 476 927T563 1055Q647 1147 682 1212T717 1358Q717 1417 687 1445T606 1473Q533 1473 485 1409T410 1214L125 -106Q89 -270 58 -347T-15 -458T-131 -492Q-182 -492
-219 -481V-389Q-183 -401 -135 -401Q-88 -401 -62 -375T-15 -286T33 -100L311 1204Q349 1385 424 1476T623 1567Z" />
<glyph unicode="&#xe0;" glyph-name="agrave" horiz-adv-x="817" d="M319 -20Q119 -20 119 262Q119 471 181 676T343 993T561 1106Q695 1106 735 956H741L780 1085H860L631 0H555L573 156H569Q455 -20 319 -20ZM338 63Q428 63 506 167T638 471T692 848Q692 931
657 973T557 1016Q469 1016 394 915T268 617T217 248Q217 157 243 110T338 63ZM586 1241Q538 1298 485 1392T414 1552V1569H541Q567 1413 625 1260V1241H586Z" />
<glyph unicode="&#xe1;" glyph-name="aacute" horiz-adv-x="817" d="M319 -20Q119 -20 119 262Q119 471 181 676T343 993T561 1106Q695 1106 735 956H741L780 1085H860L631 0H555L573 156H569Q455 -20 319 -20ZM338 63Q428 63 506 167T638 471T692 848Q692 931
657 973T557 1016Q469 1016 394 915T268 617T217 248Q217 157 243 110T338 63ZM724 1241V1257Q878 1443 947 1569H1086V1552Q1044 1489 950 1396T775 1241H724Z" />
<glyph unicode="&#xe2;" glyph-name="acircumflex" horiz-adv-x="817" d="M319 -20Q119 -20 119 262Q119 471 181 676T343 993T561 1106Q695 1106 735 956H741L780 1085H860L631 0H555L573 156H569Q455 -20 319 -20ZM338 63Q428 63 506 167T638 471T692 848Q692
931 657 973T557 1016Q469 1016 394 915T268 617T217 248Q217 157 243 110T338 63ZM999 1243Q940 1331 874 1446Q742 1314 655 1243H610L614 1262Q774 1444 853 1571H939Q950 1520 986 1421T1050 1262L1046 1243H999Z" />
<glyph unicode="&#xe3;" glyph-name="atilde" horiz-adv-x="817" d="M319 -20Q119 -20 119 262Q119 471 181 676T343 993T561 1106Q695 1106 735 956H741L780 1085H860L631 0H555L573 156H569Q455 -20 319 -20ZM338 63Q428 63 506 167T638 471T692 848Q692 931
657 973T557 1016Q469 1016 394 915T268 617T217 248Q217 157 243 110T338 63ZM969 1251Q934 1251 905 1271T848 1316T795 1361T744 1382Q704 1382 682 1347T642 1249H572Q603 1369 647 1424T752 1479Q788 1479 817 1459T871 1414T921 1369T969 1348Q999 1348 1016
1370T1057 1483H1127Q1098 1349 1062 1300T969 1251Z" />
<glyph unicode="&#xe4;" glyph-name="adieresis" horiz-adv-x="817" d="M319 -20Q119 -20 119 262Q119 471 181 676T343 993T561 1106Q695 1106 735 956H741L780 1085H860L631 0H555L573 156H569Q455 -20 319 -20ZM338 63Q428 63 506 167T638 471T692 848Q692
931 657 973T557 1016Q469 1016 394 915T268 617T217 248Q217 157 243 110T338 63ZM669 1362Q669 1411 691 1443T751 1475Q798 1475 798 1417Q798 1364 777 1331T718 1298Q669 1298 669 1362ZM941 1362Q941 1411 964 1443T1023 1475Q1070 1475 1070 1417Q1070 1364
1049 1331T990 1298Q941 1298 941 1362Z" />
<glyph unicode="&#xe5;" glyph-name="aring" horiz-adv-x="817" d="M319 -20Q119 -20 119 262Q119 471 181 676T343 993T561 1106Q695 1106 735 956H741L780 1085H860L631 0H555L573 156H569Q455 -20 319 -20ZM338 63Q428 63 506 167T638 471T692 848Q692 931
657 973T557 1016Q469 1016 394 915T268 617T217 248Q217 157 243 110T338 63ZM1029 1442Q1029 1354 978 1303T839 1251Q749 1251 699 1302T648 1438Q648 1523 698 1573T839 1624Q923 1624 976 1573T1029 1442ZM958 1438Q958 1490 927 1524T839 1559Q783 1559 752
1525T720 1438Q720 1384 748 1352T839 1319Q892 1319 925 1351T958 1438Z" />
<glyph unicode="&#xe6;" glyph-name="ae" horiz-adv-x="1192" d="M319 -20Q119 -20 119 262Q119 471 181 676T343 993T561 1106Q620 1106 657 1072T715 952L754 1085H834L801 944Q911 1106 1030 1106Q1117 1106 1164 1056T1212 903Q1212 780 1153 688T983 551T719
506H707Q686 407 686 307Q686 183 733 125T874 66Q963 66 1059 121V35Q1008 6 963 -7T858 -20Q770 -20 712 28T637 164L604 0H528L551 156Q463 -20 319 -20ZM338 63Q426 63 497 164T614 461T659 848Q659 929 633 972T557 1016Q469 1016 394 915T268 617T217 248Q217
157 243 110T338 63ZM1014 1018Q930 1018 854 910T721 588Q916 588 1017 667T1118 905Q1118 958 1096 988T1014 1018Z" />
<glyph unicode="&#xe7;" glyph-name="ccedilla" horiz-adv-x="588" d="M358 -20Q242 -20 181 60T119 291Q119 508 182 704T345 1003T569 1106Q655 1106 713 1073L674 987Q621 1016 561 1016Q469 1016 393 919T267 642T217 289Q217 66 377 66Q440 66 520 106V20Q445
-20 358 -20ZM428 -266Q428 -366 360 -429T180 -492Q156 -492 120 -489T71 -481V-403Q97 -414 174 -414Q252 -414 296 -378T340 -279Q340 -234 305 -205T188 -160L291 0H372L293 -115Q358 -133 393 -173T428 -266Z" />
<glyph unicode="&#xe8;" glyph-name="egrave" horiz-adv-x="723" d="M373 -20Q253 -20 186 63T119 297Q119 511 179 698T343 996T561 1106Q648 1106 695 1056T743 903Q743 780 684 688T514 551T250 506H238Q217 407 217 307Q217 66 401 66Q448 66 489 79T584 123V27Q500
-20 373 -20ZM545 1018Q456 1018 376 900T250 588Q649 588 649 905Q649 958 627 988T545 1018ZM572 1241Q524 1298 471 1392T400 1552V1569H527Q553 1413 611 1260V1241H572Z" />
<glyph unicode="&#xe9;" glyph-name="eacute" horiz-adv-x="723" d="M373 -20Q253 -20 186 63T119 297Q119 511 179 698T343 996T561 1106Q648 1106 695 1056T743 903Q743 780 684 688T514 551T250 506H238Q217 407 217 307Q217 66 401 66Q448 66 489 79T584 123V27Q500
-20 373 -20ZM545 1018Q456 1018 376 900T250 588Q649 588 649 905Q649 958 627 988T545 1018ZM734 1241V1257Q888 1443 957 1569H1096V1552Q1054 1489 960 1396T785 1241H734Z" />
<glyph unicode="&#xea;" glyph-name="ecircumflex" horiz-adv-x="723" d="M373 -20Q253 -20 186 63T119 297Q119 511 179 698T343 996T561 1106Q648 1106 695 1056T743 903Q743 780 684 688T514 551T250 506H238Q217 407 217 307Q217 66 401 66Q448 66 489 79T584
123V27Q500 -20 373 -20ZM545 1018Q456 1018 376 900T250 588Q649 588 649 905Q649 958 627 988T545 1018ZM1001 1241Q942 1329 876 1444Q744 1312 657 1241H612L616 1260Q776 1442 855 1569H941Q952 1518 988 1419T1052 1260L1048 1241H1001Z" />
<glyph unicode="&#xeb;" glyph-name="edieresis" horiz-adv-x="723" d="M373 -20Q253 -20 186 63T119 297Q119 511 179 698T343 996T561 1106Q648 1106 695 1056T743 903Q743 780 684 688T514 551T250 506H238Q217 407 217 307Q217 66 401 66Q448 66 489 79T584
123V27Q500 -20 373 -20ZM545 1018Q456 1018 376 900T250 588Q649 588 649 905Q649 958 627 988T545 1018ZM669 1362Q669 1411 691 1443T751 1475Q798 1475 798 1417Q798 1364 777 1331T718 1298Q669 1298 669 1362ZM941 1362Q941 1411 964 1443T1023 1475Q1070
1475 1070 1417Q1070 1364 1049 1331T990 1298Q941 1298 941 1362Z" />
<glyph unicode="&#xec;" glyph-name="igrave" horiz-adv-x="348" d="M162 0H68L299 1085H393L162 0ZM402 1241Q354 1298 301 1392T230 1552V1569H357Q383 1413 441 1260V1241H402Z" />
<glyph unicode="&#xed;" glyph-name="iacute" horiz-adv-x="348" d="M162 0H68L299 1085H393L162 0ZM298 1241V1257Q452 1443 521 1569H660V1552Q618 1489 524 1396T349 1241H298Z" />
<glyph unicode="&#xee;" glyph-name="icircumflex" horiz-adv-x="348" d="M162 0H68L299 1085H393L162 0ZM515 1241Q456 1329 390 1444Q258 1312 171 1241H126L130 1260Q290 1442 369 1569H455Q466 1518 502 1419T566 1260L562 1241H515Z" />
<glyph unicode="&#xef;" glyph-name="idieresis" horiz-adv-x="348" d="M162 0H68L299 1085H393L162 0ZM182 1362Q182 1411 204 1443T264 1475Q311 1475 311 1417Q311 1364 290 1331T231 1298Q182 1298 182 1362ZM454 1362Q454 1411 477 1443T536 1475Q583 1475
583 1417Q583 1364 562 1331T503 1298Q454 1298 454 1362Z" />
<glyph unicode="&#xf0;" glyph-name="eth" horiz-adv-x="770" d="M756 883Q756 633 701 422T545 96T313 -20Q204 -20 142 58T80 283Q80 439 138 609T288 866T487 954Q547 954 584 930T643 864T678 715Q678 954 643 1094T524 1329L297 1194L264 1253L479 1378Q433
1434 324 1513L377 1573Q474 1512 569 1419L791 1548L821 1495L610 1370Q689 1258 722 1142T756 883ZM317 66Q402 66 471 137T584 349T629 637Q629 747 593 805T489 864Q403 864 334 792T222 574T178 291Q178 175 212 121T317 66Z" />
<glyph unicode="&#xf1;" glyph-name="ntilde" horiz-adv-x="782" d="M502 0L674 815Q684 855 684 899Q684 1012 584 1012Q479 1012 408 911T293 596L166 0H72L301 1085H381L356 934H360Q453 1106 602 1106Q686 1106 732 1058T778 918Q778 862 764 797L596 0H502ZM973
1251Q938 1251 909 1271T852 1316T799 1361T748 1382Q708 1382 686 1347T646 1249H576Q607 1369 651 1424T756 1479Q792 1479 821 1459T875 1414T925 1369T973 1348Q1003 1348 1020 1370T1061 1483H1131Q1102 1349 1066 1300T973 1251Z" />
<glyph unicode="&#xf2;" glyph-name="ograve" horiz-adv-x="780" d="M340 -20Q233 -20 176 60T119 287Q119 429 155 592T249 868T385 1044T559 1106Q665 1106 724 1024T784 791Q784 652 748 493T652 219T514 42T340 -20ZM217 268Q217 66 352 66Q441 66 516 167T638
454T686 811Q686 1016 547 1016Q463 1016 390 918T267 632T217 268ZM592 1241Q544 1298 491 1392T420 1552V1569H547Q573 1413 631 1260V1241H592Z" />
<glyph unicode="&#xf3;" glyph-name="oacute" horiz-adv-x="780" d="M340 -20Q233 -20 176 60T119 287Q119 429 155 592T249 868T385 1044T559 1106Q665 1106 724 1024T784 791Q784 652 748 493T652 219T514 42T340 -20ZM217 268Q217 66 352 66Q441 66 516 167T638
454T686 811Q686 1016 547 1016Q463 1016 390 918T267 632T217 268ZM745 1241V1257Q899 1443 968 1569H1107V1552Q1065 1489 971 1396T796 1241H745Z" />
<glyph unicode="&#xf4;" glyph-name="ocircumflex" horiz-adv-x="780" d="M340 -20Q233 -20 176 60T119 287Q119 429 155 592T249 868T385 1044T559 1106Q665 1106 724 1024T784 791Q784 652 748 493T652 219T514 42T340 -20ZM217 268Q217 66 352 66Q441 66 516
167T638 454T686 811Q686 1016 547 1016Q463 1016 390 918T267 632T217 268ZM1001 1241Q942 1329 876 1444Q744 1312 657 1241H612L616 1260Q776 1442 855 1569H941Q952 1518 988 1419T1052 1260L1048 1241H1001Z" />
<glyph unicode="&#xf5;" glyph-name="otilde" horiz-adv-x="780" d="M340 -20Q233 -20 176 60T119 287Q119 429 155 592T249 868T385 1044T559 1106Q665 1106 724 1024T784 791Q784 652 748 493T652 219T514 42T340 -20ZM217 268Q217 66 352 66Q441 66 516 167T638
454T686 811Q686 1016 547 1016Q463 1016 390 918T267 632T217 268ZM959 1251Q924 1251 895 1271T838 1316T785 1361T734 1382Q694 1382 672 1347T632 1249H562Q593 1369 637 1424T742 1479Q778 1479 807 1459T861 1414T911 1369T959 1348Q989 1348 1006 1370T1047
1483H1117Q1088 1349 1052 1300T959 1251Z" />
<glyph unicode="&#xf6;" glyph-name="odieresis" horiz-adv-x="780" d="M340 -20Q233 -20 176 60T119 287Q119 429 155 592T249 868T385 1044T559 1106Q665 1106 724 1024T784 791Q784 652 748 493T652 219T514 42T340 -20ZM217 268Q217 66 352 66Q441 66 516
167T638 454T686 811Q686 1016 547 1016Q463 1016 390 918T267 632T217 268ZM665 1362Q665 1411 687 1443T747 1475Q794 1475 794 1417Q794 1364 773 1331T714 1298Q665 1298 665 1362ZM937 1362Q937 1411 960 1443T1019 1475Q1066 1475 1066 1417Q1066 1364 1045
1331T986 1298Q937 1298 937 1362Z" />
<glyph unicode="&#xf7;" glyph-name="divide" horiz-adv-x="737" d="M764 760V686H131V760H764ZM377 408Q377 504 446 504Q475 504 495 482T516 408Q516 357 496 334T446 311Q416 311 397 334T377 408ZM377 1036Q377 1133 446 1133Q475 1133 495 1111T516 1036Q516
985 496 963T446 940Q377 940 377 1036Z" />
<glyph unicode="&#xf8;" glyph-name="oslash" horiz-adv-x="780" d="M340 -20Q241 -20 184 49L74 -117L10 -74L141 125Q119 189 119 287Q119 429 155 592T249 868T385 1044T559 1106Q672 1106 731 1014L836 1171L903 1128L768 926Q784 868 784 791Q784 652 748
493T652 219T514 42T340 -20ZM670 922Q638 1016 547 1016Q461 1016 387 914T264 619T215 240L670 922ZM352 66Q440 66 514 163T636 439T688 803L240 133Q273 66 352 66Z" />
<glyph unicode="&#xf9;" glyph-name="ugrave" horiz-adv-x="786" d="M395 1085L233 330Q215 252 215 195Q215 72 309 72Q518 72 606 489L733 1085H827L596 0H522L530 135H526Q425 -20 287 -20Q123 -20 123 178Q123 257 143 344L301 1085H395ZM607 1241Q559 1298
506 1392T435 1552V1569H562Q588 1413 646 1260V1241H607Z" />
<glyph unicode="&#xfa;" glyph-name="uacute" horiz-adv-x="786" d="M395 1085L233 330Q215 252 215 195Q215 72 309 72Q518 72 606 489L733 1085H827L596 0H522L530 135H526Q425 -20 287 -20Q123 -20 123 178Q123 257 143 344L301 1085H395ZM743 1241V1257Q897
1443 966 1569H1105V1552Q1063 1489 969 1396T794 1241H743Z" />
<glyph unicode="&#xfb;" glyph-name="ucircumflex" horiz-adv-x="786" d="M395 1085L233 330Q215 252 215 195Q215 72 309 72Q518 72 606 489L733 1085H827L596 0H522L530 135H526Q425 -20 287 -20Q123 -20 123 178Q123 257 143 344L301 1085H395ZM1007 1241Q948
1329 882 1444Q750 1312 663 1241H618L622 1260Q782 1442 861 1569H947Q958 1518 994 1419T1058 1260L1054 1241H1007Z" />
<glyph unicode="&#xfc;" glyph-name="udieresis" horiz-adv-x="786" d="M395 1085L233 330Q215 252 215 195Q215 72 309 72Q518 72 606 489L733 1085H827L596 0H522L530 135H526Q425 -20 287 -20Q123 -20 123 178Q123 257 143 344L301 1085H395ZM655 1362Q655
1411 677 1443T737 1475Q784 1475 784 1417Q784 1364 763 1331T704 1298Q655 1298 655 1362ZM927 1362Q927 1411 950 1443T1009 1475Q1056 1475 1056 1417Q1056 1364 1035 1331T976 1298Q927 1298 927 1362Z" />
<glyph unicode="&#xfd;" glyph-name="yacute" horiz-adv-x="588" d="M-68 -492Q-114 -492 -158 -473V-387Q-121 -403 -70 -403Q-16 -403 22 -360T117 -186L188 -16L180 1085H274V446Q274 285 262 123H268Q321 280 365 387L653 1085H752L190 -244Q132 -382 74 -437T-68
-492ZM659 1241V1257Q813 1443 882 1569H1021V1552Q979 1489 885 1396T710 1241H659Z" />
<glyph unicode="&#xfe;" glyph-name="thorn" horiz-adv-x="803" d="M614 1106Q815 1106 815 823Q815 613 752 409T590 92T373 -20Q305 -20 258 21T199 131H193L68 -471H-27L403 1556H498L360 930H365Q479 1106 614 1106ZM596 1022Q502 1022 423 918T293 624T242
252Q242 66 377 66Q465 66 540 169T666 469T717 838Q717 929 691 975T596 1022Z" />
<glyph unicode="&#xff;" glyph-name="ydieresis" horiz-adv-x="588" d="M-68 -492Q-114 -492 -158 -473V-387Q-121 -403 -70 -403Q-16 -403 22 -360T117 -186L188 -16L180 1085H274V446Q274 285 262 123H268Q321 280 365 387L653 1085H752L190 -244Q132 -382 74
-437T-68 -492ZM302 1362Q302 1411 324 1443T384 1475Q431 1475 431 1417Q431 1364 410 1331T351 1298Q302 1298 302 1362ZM574 1362Q574 1411 597 1443T656 1475Q703 1475 703 1417Q703 1364 682 1331T623 1298Q574 1298 574 1362Z" />
<glyph unicode="&#x2013;" glyph-name="endash" horiz-adv-x="922" d="M123 512L139 594H913L897 512H123Z" />
<glyph unicode="&#x2014;" glyph-name="emdash" horiz-adv-x="1843" d="M123 512L139 594H1835L1819 512H123Z" />
<glyph unicode="&#x2018;" glyph-name="quoteleft" horiz-adv-x="285" d="M147 1016Q259 1246 393 1462H459Q416 1376 361 1244T268 993H156L147 1016Z" />
<glyph unicode="&#x2019;" glyph-name="quoteright" horiz-adv-x="285" d="M459 1440Q364 1238 215 993H150Q269 1248 340 1462H451L459 1440Z" />
<glyph unicode="&#x201a;" glyph-name="quotesinglbase" horiz-adv-x="379" d="M289 182Q187 -32 45 -264H-20Q21 -176 76 -40T166 205H281L289 182Z" />
<glyph unicode="&#x201c;" glyph-name="quotedblleft" horiz-adv-x="539" d="M414 1016Q529 1253 659 1462H723Q680 1376 625 1244T532 993H422L414 1016ZM160 1016Q278 1259 406 1462H469Q420 1365 366 1233T279 993H168L160 1016Z" />
<glyph unicode="&#x201d;" glyph-name="quotedblright" horiz-adv-x="539" d="M451 1440Q356 1238 207 993H143Q255 1225 334 1462H442L451 1440ZM705 1440Q610 1238 461 993H397Q509 1225 588 1462H698L705 1440Z" />
<glyph unicode="&#x201e;" glyph-name="quotedblbase" horiz-adv-x="539" d="M227 182Q130 -25 -16 -264H-80Q32 -32 111 205H219L227 182ZM481 182Q384 -25 238 -264H174Q213 -182 269 -47T365 205H475L481 182Z" />
<glyph unicode="&#x2022;" glyph-name="bullet" horiz-adv-x="692" d="M211 748Q211 868 267 928T428 989Q532 989 588 929T645 748Q645 630 589 568T428 506Q325 506 268 568T211 748Z" />
<glyph unicode="&#x2039;" glyph-name="guilsinglleft" horiz-adv-x="461" d="M465 907L522 866L246 526L371 176L307 147L127 514L131 541L465 907Z" />
<glyph unicode="&#x203a;" glyph-name="guilsinglright" horiz-adv-x="461" d="M106 147L49 188L326 528L201 879L264 907L444 541L440 514L106 147Z" />
</font>
</defs>
</svg>
