<?xml version="1.0" standalone="no"?>
<!DOCTYPE svg PUBLIC "-//W3C//DTD SVG 1.1//EN" "http://www.w3.org/Graphics/SVG/1.1/DTD/svg11.dtd">
<svg xmlns="http://www.w3.org/2000/svg">
<defs >
<font id="OpenSans" horiz-adv-x="1106" ><font-face
    font-family="Open Sans ExtraBold"
    units-per-em="2048"
    panose-1="0 0 0 0 0 0 0 0 0 0"
    ascent="2189"
    descent="-600"
    alphabetic="0" />
<glyph unicode=" " horiz-adv-x="532" />
<glyph unicode="!" horiz-adv-x="623" d="M125 516L281 1462H707L453 516H125ZM199 -25Q93 -25 53 22T12 127Q12 225 72 292T256 360Q342 360 389 320T436 205Q436 90 370 33T199 -25Z" />
<glyph unicode="&quot;" horiz-adv-x="930" d="M623 934L696 1462H1038L881 934H623ZM182 934L254 1462H596L438 934H182Z" />
<glyph unicode="#" horiz-adv-x="1323" d="M121 0L233 393H14L35 631H301L358 831H123L143 1073H428L539 1462H809L698 1073H866L977 1462H1247L1137 1073H1358L1337 831H1067L1010 631H1253L1233 393H940L829 0H559L672 393H504L391 0H121ZM571 631H739L797 831H629L571
631Z" />
<glyph unicode="$" horiz-adv-x="1188" d="M367 -121L408 70Q284 79 199 104T61 162L55 467Q162 418 269 389T469 352L528 631Q424 671 348 722T230 844T188 1008Q188 1135 250 1224T426 1364T696 1423L725 1556H893L862 1419Q945 1412 1022 1390T1176 1331L1075
1063Q1020 1092 946 1111T803 1139L743 862Q862 809 935 756T1041 639T1075 492Q1075 364 1010 272T831 127T573 66L535 -121H367ZM635 358Q676 368 701 383T737 420T748 465Q748 490 740 508T716 542T680 569L635 358ZM592 932L637 1135Q598 1127 577 1110T548
1071T539 1022Q539 1000 545 984T563 955T592 932Z" />
<glyph unicode="%" horiz-adv-x="1905" d="M293 0L1382 1462H1671L590 0H293ZM438 565Q281 565 198 652T115 909Q115 981 129 1060T176 1214T259 1350T384 1447T555 1483Q715 1483 794 1393T874 1139Q874 1068 861 989T817 835T736 699T612 602T438 565ZM457 807Q481
807 501 830T538 891T566 976T584 1070T590 1157Q590 1200 578 1220T537 1241Q515 1241 495 1219T458 1160T429 1077T410 983T403 891Q403 850 416 829T457 807ZM1421 -20Q1264 -20 1181 66T1098 324Q1098 396 1112 475T1159 629T1242 764T1367 861T1538 897Q1698
897 1778 807T1858 553Q1858 482 1845 404T1801 250T1720 114T1595 17T1421 -20ZM1440 221Q1464 221 1484 244T1521 305T1549 390T1567 484T1573 571Q1573 615 1561 635T1520 655Q1498 655 1478 633T1441 574T1412 491T1393 397T1386 305Q1386 264 1399 243T1440
221Z" />
<glyph unicode="&amp;" horiz-adv-x="1501" d="M528 -20Q290 -20 149 84T8 385Q8 497 50 579T172 720T367 815Q325 868 304 942T283 1065Q283 1198 340 1292T506 1435T764 1485Q882 1485 976 1448T1125 1339T1180 1161Q1180 1065 1140 989T1023 850T838 731L967
545Q1008 588 1046 667T1106 821H1489Q1456 706 1406 603T1296 414T1171 262L1362 0H920L877 61Q810 26 721 3T528 -20ZM571 287Q599 287 624 290T670 300T709 313L516 592Q471 573 446 546T410 488T399 424Q399 390 417 359T473 307T571 287ZM686 948Q715 960
740 977T785 1017T816 1070T827 1135Q827 1170 805 1195T745 1221Q713 1221 688 1205T649 1161T635 1092Q635 1070 645 1029T686 948Z" />
<glyph unicode="&apos;" horiz-adv-x="487" d="M182 934L254 1462H596L438 934H182Z" />
<glyph unicode="(" horiz-adv-x="766" d="M219 -324Q171 -239 138 -128T86 101T68 326Q68 500 101 658T199 960T360 1240T580 1503H903Q794 1385 702 1254T540 975T433 662T395 309Q395 214 409 103T449 -118T512 -324H219Z" />
<glyph unicode=")" horiz-adv-x="766" d="M-133 -324Q-24 -205 67 -74T226 205T330 518T367 870Q367 966 353 1077T312 1298T248 1503H543Q595 1412 628 1302T678 1076T694 854Q694 680 663 522T568 219T411 -61T193 -324H-133Z" />
<glyph unicode="*" horiz-adv-x="1110" d="M692 551L612 854L446 610L197 795L451 1024L152 1108L252 1386L571 1221L602 1571L909 1509L793 1178L1161 1208L1139 907L829 948L977 637L692 551Z" />
<glyph unicode="+" horiz-adv-x="1200" d="M733 856H1106V588H733V227H465V588H92V856H465V1223H733V856Z" />
<glyph unicode="," horiz-adv-x="627" d="M-104 -264Q-68 -183 -35 -94T28 81T84 238H432L440 215Q409 143 368 60T280 -106T184 -264H-104Z" />
<glyph unicode="-" horiz-adv-x="674" d="M23 393L86 705H639L575 393H23Z" />
<glyph unicode="." horiz-adv-x="627" d="M174 -25Q96 -25 48 12T0 127Q0 249 73 304T244 360Q324 360 374 323T424 205Q424 73 356 24T174 -25Z" />
<glyph unicode="/" horiz-adv-x="956" d="M-90 -20L748 1483H1092L254 -20H-90Z" />
<glyph unicode="0" horiz-adv-x="1188" d="M489 -20Q288 -20 176 101T63 465Q63 589 80 712T132 950T221 1161T349 1331T518 1444T731 1485Q848 1485 929 1443T1061 1328T1134 1167T1157 983Q1157 851 1139 726T1084 488T992 283T863 122T695 17T489 -20ZM528
295Q563 295 594 326T651 412T699 537T736 685T760 841T768 991Q768 1076 749 1122T686 1169Q656 1169 627 1137T572 1050T524 924T487 773T462 612T453 457Q453 374 468 335T528 295Z" />
<glyph unicode="1" horiz-adv-x="1188" d="M385 0L559 799Q567 837 579 883T607 975T635 1055Q606 1029 568 999T504 952L301 827L150 1079L770 1462H1081L774 0H385Z" />
<glyph unicode="2" horiz-adv-x="1188" d="M-57 0L-4 256L479 692Q552 757 600 811T676 910T715 989T727 1053Q727 1102 701 1126T635 1151Q592 1151 547 1135T455 1085T354 1004L168 1262Q275 1363 409 1423T709 1483Q830 1483 921 1439T1064 1312T1116 1114Q1116
1019 1082 931T965 743T731 514L526 338V326H1016L948 0H-57Z" />
<glyph unicode="3" horiz-adv-x="1188" d="M399 -20Q290 -20 185 0T14 59V391Q103 337 198 314T391 291Q450 291 500 301T588 332T645 387T666 471Q666 514 645 543T564 588T387 604H303L356 895H434Q506 895 563 906T661 940T723 995T745 1069Q745 1104 716 1137T610
1171Q543 1171 476 1148T340 1087L182 1335Q289 1403 402 1443T684 1483Q815 1483 914 1442T1070 1323T1126 1137Q1126 1030 1082 954T961 830T784 762V754Q920 728 989 639T1059 430Q1059 311 1007 226T864 87T653 6T399 -20Z" />
<glyph unicode="4" horiz-adv-x="1188" d="M479 0L539 283H-10L41 539L803 1462H1163L977 578H1126L1065 283H915L856 0H479ZM391 578H600L649 772Q659 807 671 851T694 932T709 983H700Q682 949 650 898T586 811L391 578Z" />
<glyph unicode="5" horiz-adv-x="1188" d="M434 -20Q360 -20 279 -11T128 16T20 63V387Q94 344 196 318T385 291Q451 291 502 302T589 336T643 396T662 483Q662 552 616 602T475 653Q423 653 367 644T272 621L150 713L365 1462H1178L1110 1139H639L580 954Q606
957 624 957T655 958Q768 958 860 908T1006 762T1061 524Q1061 386 1017 284T891 114T693 14T434 -20Z" />
<glyph unicode="6" horiz-adv-x="1188" d="M557 -20Q390 -20 285 47T130 233T80 510Q80 615 98 725T152 941T240 1135T360 1286Q449 1368 537 1410T730 1468T971 1483Q1028 1483 1087 1475T1204 1452L1141 1149Q1103 1160 1051 1167T958 1174Q801 1174 707 1135T558
1015T463 807H471Q498 850 537 889T635 952T778 977Q929 977 1017 879T1106 575Q1106 448 1070 340T963 151T790 25T557 -20ZM561 287Q599 287 627 309T675 368T703 451T713 545Q713 605 691 639T621 674Q589 674 562 658T514 611T479 539Q474 522 471 503T465
463T463 420Q463 387 470 362T490 321T521 296T561 287Z" />
<glyph unicode="7" horiz-adv-x="1188" d="M35 0L752 1135H178L248 1462H1278L1227 1231L483 0H35Z" />
<glyph unicode="8" horiz-adv-x="1188" d="M537 -20Q377 -20 269 28T105 158T49 338Q49 440 87 520T199 659T381 756Q340 789 305 830T247 929T225 1065Q225 1178 281 1273T449 1427T725 1485Q865 1485 961 1441T1107 1322T1157 1151Q1157 1073 1125 1000T1031
870T877 782Q938 735 980 681T1043 562T1065 420Q1065 282 1001 184T819 33T537 -20ZM547 262Q590 262 625 280T681 332T702 414Q702 454 688 489T647 554T584 608Q536 583 498 550T437 475T414 385Q414 324 456 293T547 262ZM674 930Q717 947 745 975T787 1038T801
1104Q801 1153 773 1177T707 1202Q675 1202 648 1184T605 1135T588 1065Q588 1025 612 987T674 930Z" />
<glyph unicode="9" horiz-adv-x="1188" d="M317 -20Q254 -20 203 -12T106 10V324Q156 304 204 294T309 287Q404 292 476 315T602 384T690 496T745 655H737Q711 612 673 572T577 507T436 481Q334 481 261 531T148 673T109 887Q109 982 130 1070T193 1233T302 1364T457
1451T662 1483Q829 1483 933 1415T1087 1227T1137 952Q1137 847 1122 740T1073 532T986 339T856 176Q808 131 751 95T627 33T483 -6T317 -20ZM594 788Q625 788 651 804T699 848T733 913Q742 939 748 968T754 1030Q754 1071 743 1104T709 1156T655 1176Q622 1176
594 1157T546 1103T514 1025T502 932Q502 860 525 824T594 788Z" />
<glyph unicode=":" horiz-adv-x="627" d="M369 762Q290 762 243 799T195 915Q195 996 228 1047T316 1123T436 1147Q518 1147 568 1110T618 993Q618 860 550 811T369 762ZM174 -25Q96 -25 48 12T0 127Q0 249 73 304T244 360Q324 360 374 323T424 205Q424 73 356
24T174 -25Z" />
<glyph unicode=";" horiz-adv-x="627" d="M-117 -264Q-81 -183 -48 -94T16 81T72 238H420L428 215Q397 143 356 60T267 -106T172 -264H-117ZM369 762Q290 762 243 799T195 915Q195 996 228 1047T316 1123T436 1147Q518 1147 568 1110T618 993Q618 860 550 811T369 762Z" />
<glyph unicode="&lt;" horiz-adv-x="1200" d="M1104 178L92 627V799L1104 1305V1008L483 725L1104 473V178Z" />
<glyph unicode="=" horiz-adv-x="1200" d="M92 815V1083H1108V815H92ZM92 358V629H1108V358H92Z" />
<glyph unicode="&gt;" horiz-adv-x="1200" d="M92 473L713 725L92 1008V1305L1104 799V627L92 178V473Z" />
<glyph unicode="?" horiz-adv-x="999" d="M250 516Q271 628 301 697T383 820T522 932Q589 976 623 1005T671 1058T684 1104Q684 1135 666 1154T594 1174Q539 1174 458 1148T281 1065L162 1348Q257 1404 375 1443T623 1483Q826 1483 943 1393T1061 1145Q1061 1033
1022 960T919 836T784 743Q707 696 669 665T613 602T578 516H250ZM334 -25Q228 -25 188 22T147 127Q147 225 207 292T391 360Q477 360 524 320T571 205Q571 90 505 33T334 -25Z" />
<glyph unicode="@" horiz-adv-x="1837" d="M780 -186Q625 -186 497 -140T276 -5T133 211T82 500Q82 692 131 847T268 1122T475 1321T732 1442T1020 1483Q1254 1483 1423 1406T1683 1182T1774 827Q1774 723 1749 630T1676 460T1563 326T1417 238T1247 207Q1168
207 1111 238T1028 336H1018Q970 272 907 240T750 207Q633 207 559 290T485 512Q485 589 506 670T570 827T678 961T832 1055T1032 1090Q1115 1090 1202 1071T1368 1020L1268 606Q1257 562 1251 530T1245 469Q1245 450 1254 439T1284 428Q1317 428 1350 443T1412
488T1463 566T1498 676T1511 821Q1511 953 1456 1050T1287 1200T995 1253Q883 1253 784 1220T605 1125T466 973T376 771T344 524Q344 363 405 256T565 96T776 43Q874 43 1005 66T1255 137V-88Q1171 -128 1042 -157T780 -186ZM842 428Q901 428 941 478T1016 668L1063
858Q1053 863 1040 865T1012 868Q948 868 901 835T824 749T779 639T764 532Q764 477 784 453T842 428Z" />
<glyph unicode="A" horiz-adv-x="1384" d="M-121 0L623 1462H1126L1249 0H868L858 274H410L285 0H-121ZM553 586H846L831 1006Q830 1055 829 1103T829 1194H823Q808 1148 791 1104T752 1014L553 586Z" />
<glyph unicode="B" horiz-adv-x="1298" d="M33 0L342 1462H829Q986 1462 1083 1421T1225 1308T1270 1143Q1270 1044 1236 970T1135 845T973 766V758Q1061 729 1113 656T1165 479Q1165 308 1087 203T876 49T580 0H33ZM489 305H571Q631 305 676 328T746 389T772
475Q772 544 739 578T623 612H555L489 305ZM614 901H686Q755 901 793 921T848 978T864 1061Q864 1110 833 1136T737 1163H674L614 901Z" />
<glyph unicode="C" horiz-adv-x="1290" d="M645 -20Q462 -20 342 51T163 251T104 549Q104 680 132 813T219 1066T370 1281T589 1430T881 1485Q1027 1485 1143 1451T1362 1354L1214 1049Q1121 1104 1043 1131T881 1159Q810 1159 751 1127T645 1038T566 907T517
746T500 569Q500 436 556 370T717 303Q806 303 891 325T1085 393V70Q978 22 869 1T645 -20Z" />
<glyph unicode="D" horiz-adv-x="1401" d="M33 0L342 1462H758Q1027 1462 1182 1321T1337 909Q1337 739 1301 597T1194 344T1023 157T791 40T504 0H33ZM494 324H563Q630 324 688 350T793 425T873 544T924 701T942 889Q942 1014 888 1078T737 1143H666L494 324Z" />
<glyph unicode="E" horiz-adv-x="1151" d="M33 0L342 1462H1210L1145 1145H668L621 915H1065L993 598H549L492 322H969L901 0H33Z" />
<glyph unicode="F" horiz-adv-x="1165" d="M33 0L342 1462H1204L1137 1145H666L608 866H1044L975 547H537L424 0H33Z" />
<glyph unicode="G" horiz-adv-x="1430" d="M653 -20Q405 -20 255 126T104 563Q104 704 137 838T238 1090T408 1296T648 1435T961 1485Q1088 1485 1204 1458T1409 1378L1262 1069Q1199 1106 1122 1132T956 1159Q828 1159 741 1100T600 950T524 757T500 569Q500
477 524 419T594 333T709 305Q749 305 775 308T842 319L893 551H664L731 856H1341L1174 61Q1069 27 943 4T653 -20Z" />
<glyph unicode="H" horiz-adv-x="1462" d="M33 0L342 1462H733L621 920H969L1081 1462H1473L1163 0H772L897 596H551L424 0H33Z" />
<glyph unicode="I" horiz-adv-x="723" d="M33 0L342 1462H733L424 0H33Z" />
<glyph unicode="J" horiz-adv-x="764" d="M-115 -461Q-167 -461 -223 -453T-328 -432V-113Q-291 -122 -249 -129T-154 -137Q-91 -137 -44 -116T37 -40T92 117L381 1462H772L473 68Q432 -124 362 -240T177 -409T-115 -461Z" />
<glyph unicode="K" horiz-adv-x="1370" d="M33 0L342 1462H733L598 838L743 1042L1063 1462H1522L971 788L1241 0H803L629 578L532 522L424 0H33Z" />
<glyph unicode="L" horiz-adv-x="1079" d="M33 0L342 1462H733L492 319H969L901 0H33Z" />
<glyph unicode="M" horiz-adv-x="1862" d="M33 0L342 1462H860V424H868L1346 1462H1872L1559 0H1208L1325 549Q1358 702 1383 800T1424 956T1448 1049H1440L958 0H588V1049H580Q564 946 549 854T521 682T494 537L381 0H33Z" />
<glyph unicode="N" horiz-adv-x="1618" d="M33 0L342 1462H797L1083 479H1092Q1097 523 1106 591T1127 729T1149 850L1280 1462H1628L1319 0H864L575 1028H567Q566 1008 561 960T548 849T531 724T510 610L381 0H33Z" />
<glyph unicode="O" horiz-adv-x="1509" d="M666 -20Q479 -20 355 50T167 246T104 543Q104 657 125 770T189 988T297 1184T450 1341T649 1447T897 1485Q1167 1485 1306 1331T1446 922Q1446 808 1426 695T1364 476T1258 280T1108 123T911 18T666 -20ZM700 303Q749
303 794 325T878 387T949 484T1004 609T1039 756T1051 918Q1051 1031 1003 1096T864 1161Q809 1161 761 1136T673 1067T600 964T546 836T512 693T500 545Q500 466 522 412T589 331T700 303Z" />
<glyph unicode="P" horiz-adv-x="1276" d="M33 0L342 1462H715Q909 1462 1026 1404T1197 1247T1251 1024Q1251 893 1205 793T1073 624T870 520T610 485H524L424 0H33ZM594 805H657Q719 805 764 832T835 906T860 1012Q860 1062 829 1102T725 1143H666L594 805Z" />
<glyph unicode="Q" horiz-adv-x="1509" d="M821 -348L659 -20Q653 -20 648 -20T637 -20Q465 -20 346 50T166 246T104 543Q104 657 125 770T189 988T297 1184T452 1341T653 1447T903 1485Q1169 1485 1307 1331T1446 922Q1446 822 1430 722T1380 527T1297 347T1178
193T1022 74L1260 -348H821ZM682 309Q736 309 784 331T873 394T947 491T1003 615T1038 760T1051 920Q1051 1038 1004 1097T870 1157Q816 1157 768 1135T679 1071T604 974T548 848T513 701T500 539Q500 463 521 412T584 335T682 309Z" />
<glyph unicode="R" horiz-adv-x="1331" d="M33 0L342 1462H729Q981 1462 1115 1362T1249 1061Q1249 927 1205 838T1096 694T967 612L1231 0H805L610 532H537L424 0H33ZM600 829H651Q690 829 727 840T793 876T840 940T858 1036Q858 1089 828 1126T723 1163H670L600 829Z" />
<glyph unicode="S" horiz-adv-x="1122" d="M420 -20Q311 -20 213 5T43 76V426Q123 377 231 339T432 301Q469 301 497 309T544 332T572 369T582 420Q582 457 560 489T501 552T418 621Q351 676 301 736T223 867T195 1028Q195 1127 232 1210T337 1354T501 1449T713
1483Q831 1483 941 1455T1143 1376L1008 1079Q938 1114 862 1140T717 1167Q675 1167 649 1157T609 1130T590 1094T584 1057Q584 1026 597 998T646 935T745 852Q826 792 877 730T953 600T977 449Q977 340 940 253T832 105T658 12T420 -20Z" />
<glyph unicode="T" horiz-adv-x="1130" d="M236 0L473 1139H156L225 1462H1253L1182 1139H864L627 0H236Z" />
<glyph unicode="U" horiz-adv-x="1436" d="M610 -20Q458 -20 349 34T183 185T125 403Q125 434 128 470T137 539L336 1462H727L532 549Q526 520 522 490T518 434Q518 374 551 341T647 307Q706 307 747 333T818 416T868 569L1059 1462H1450L1251 530Q1214 352 1138
230T934 44T610 -20Z" />
<glyph unicode="V" horiz-adv-x="1264" d="M254 0L150 1462H532L557 725Q559 672 559 601T554 462T543 354H551Q563 408 581 466T618 576T651 657L1001 1462H1415L690 0H254Z" />
<glyph unicode="W" horiz-adv-x="1915" d="M201 0L152 1462H522L512 729Q511 641 507 547T494 385H502Q523 453 556 535T621 690L956 1462H1292V670Q1292 619 1290 530T1282 369H1290Q1306 422 1329 492T1377 633T1425 762L1702 1462H2089L1454 0H993V561Q993
614 994 670T999 783T1006 895H997Q966 800 932 710T860 530L635 0H201Z" />
<glyph unicode="X" horiz-adv-x="1358" d="M-125 0L438 776L215 1462H631L754 993L1063 1462H1511L973 737L1235 0H803L657 498L319 0H-125Z" />
<glyph unicode="Y" horiz-adv-x="1237" d="M281 0L401 567L164 1462H567L657 920L969 1462H1405L793 567L672 0H281Z" />
<glyph unicode="Z" horiz-adv-x="1104" d="M-92 0L-45 242L645 1143H166L233 1462H1219L1167 1217L467 319H1010L942 0H-92Z" />
<glyph unicode="[" horiz-adv-x="737" d="M-53 -344L340 1503H870L815 1249H600L315 -90H530L477 -344H-53Z" />
<glyph unicode="\" horiz-adv-x="956" d="M459 -20L221 1483H530L778 -20H459Z" />
<glyph unicode="]" horiz-adv-x="737" d="M-133 -344L-80 -90H133L418 1249H203L258 1503H786L393 -344H-133Z" />
<glyph unicode="^" horiz-adv-x="1096" d="M-6 502L625 1462H797L1081 502H807L651 1071L291 502H-6Z" />
<glyph unicode="_" horiz-adv-x="922" d="M-184 -379L-127 -133H803L745 -379H-184Z" />
<glyph unicode="`" horiz-adv-x="723" d="M549 1241Q504 1283 455 1335T363 1443T295 1548V1569H690Q699 1525 711 1475T742 1371T784 1266V1241H549Z" />
<glyph unicode="a" horiz-adv-x="1243" d="M406 -20Q319 -20 246 21T128 156T84 412Q84 495 103 594T162 791T262 972T403 1103T588 1153Q653 1153 701 1133T786 1078T850 993H858L911 1133H1221L981 0H672L682 123H674Q644 81 607 49T522 -1T406 -20ZM565 291Q609
291 646 331T709 436T748 573Q754 604 757 635T760 698Q760 763 740 802T678 842Q646 842 617 819T562 755T519 662T490 551T479 434Q479 365 500 328T565 291Z" />
<glyph unicode="b" horiz-adv-x="1243" d="M657 -20Q600 -20 554 -6T468 41T387 125H379L330 0H23L352 1556H739L690 1325Q678 1263 662 1205T629 1100T600 1024H608Q635 1057 664 1086T734 1134T838 1153Q925 1153 998 1112T1115 977T1159 721Q1159 638 1140
539T1082 341T982 161T841 30T657 -20ZM563 291Q595 291 625 314T680 378T724 471T753 581T764 698Q764 768 743 805T678 842Q648 842 622 824T575 774T537 701T509 615T491 523T485 434Q485 370 504 331T563 291Z" />
<glyph unicode="c" horiz-adv-x="1032" d="M506 -20Q391 -20 295 27T142 176T84 442Q84 562 111 669T191 865T317 1018T486 1118T690 1153Q796 1153 883 1133T1057 1073L934 786Q883 809 824 827T709 846Q649 846 605 809T531 712T488 588T473 467Q473 401 488
363T531 308T598 291Q670 291 737 314T881 377V70Q801 27 713 4T506 -20Z" />
<glyph unicode="d" horiz-adv-x="1237" d="M406 -20Q319 -20 246 21T128 156T84 412Q84 495 103 594T161 791T261 972T402 1103T586 1153Q648 1153 689 1135T761 1082T823 1001H831Q831 1014 833 1056T842 1153T858 1255L920 1556H1311L981 0H672L682 123H674Q646
84 611 52T527 0T406 -20ZM565 291Q595 291 621 309T668 359T707 432T736 519T754 611T760 698Q760 763 741 802T680 842Q648 842 618 819T563 755T519 662T490 551T479 434Q479 365 500 328T565 291Z" />
<glyph unicode="e" horiz-adv-x="1186" d="M532 -20Q389 -20 289 34T137 188T84 428Q84 567 123 697T243 930T446 1093T733 1153Q924 1153 1032 1067T1141 838Q1141 744 1105 668T995 536T805 452T532 422H473Q473 418 473 415T473 406Q473 330 514 294T637 258Q723
258 800 284T965 356V82Q874 36 777 8T532 -20ZM512 664H541Q628 664 679 687T752 745T774 815Q774 847 754 869T690 891Q645 891 607 856T544 769T512 664Z" />
<glyph unicode="f" horiz-adv-x="840" d="M-2 -492Q-56 -492 -115 -484T-209 -465V-162Q-181 -169 -151 -174T-92 -180Q-18 -180 20 -150T72 -55L262 842H96L139 1032L328 1128L344 1202Q365 1298 401 1367T490 1480T611 1546T766 1567Q846 1567 921 1551T1049
1509L950 1245Q921 1259 887 1267T821 1276Q786 1276 762 1258T729 1204L713 1133H924L858 842H649L444 -117Q421 -225 369 -310T226 -443T-2 -492Z" />
<glyph unicode="g" horiz-adv-x="1170" d="M347 -492Q135 -492 10 -417T-116 -207Q-116 -109 -48 -38T164 80Q127 103 104 140T80 219Q80 290 131 345T283 446Q218 498 185 568T152 727Q152 816 181 889T265 1017Q331 1082 430 1117T656 1153Q707 1153 763 1147T853
1133H1252L1211 926L1051 874Q1056 854 1058 831T1061 780Q1061 687 1029 611T938 478Q877 419 789 387T592 354Q554 354 523 357T468 367Q448 356 434 345T420 315Q420 301 432 289Q443 279 468 270T531 256L668 238Q784 223 856 188T961 96T994 -43Q994 -153
949 -238T816 -381Q734 -436 616 -464T347 -492ZM384 -238Q441 -238 495 -231T586 -204Q611 -191 625 -172T640 -127Q640 -113 636 -103T623 -84Q604 -65 569 -57T492 -45L377 -33Q325 -40 289 -56T233 -96T214 -152Q214 -195 256 -216T384 -238ZM584 598Q619 598
645 629T687 713T703 825Q703 848 700 866T688 896Q681 908 670 914T642 920Q610 920 587 898T548 841T525 767T517 692Q517 670 520 654T531 625Q548 598 584 598Z" />
<glyph unicode="h" horiz-adv-x="1274" d="M23 0L352 1556H739L686 1307Q676 1259 661 1207T630 1107T598 1024H606Q641 1069 683 1097T774 1139T879 1153Q985 1153 1050 1109T1147 992T1178 831Q1178 775 1171 716T1153 602L1026 0H639L768 618Q774 644 780 684T786
760Q786 803 764 824T711 846Q673 846 639 817T577 723T526 553L410 0H23Z" />
<glyph unicode="i" horiz-adv-x="666" d="M23 0L262 1133H651L410 0H23ZM500 1241Q418 1241 364 1272T309 1382Q309 1450 336 1496T413 1567T535 1591Q612 1591 668 1560T725 1450Q725 1356 670 1299T500 1241Z" />
<glyph unicode="j" horiz-adv-x="666" d="M-57 -492Q-111 -492 -170 -484T-264 -465V-162Q-227 -174 -202 -177T-152 -180Q-111 -180 -76 -166T-14 -119T23 -33L270 1133H657L397 -94Q376 -196 324 -287T179 -435T-57 -492ZM508 1241Q426 1241 372 1272T317 1382Q317
1450 344 1496T421 1567T543 1591Q620 1591 676 1560T733 1450Q733 1356 679 1299T508 1241Z" />
<glyph unicode="k" horiz-adv-x="1264" d="M23 0L348 1556H735L596 893Q588 856 576 812T553 730T532 668H541L932 1133H1374L883 621L1157 0H719L580 391L479 338L410 0H23Z" />
<glyph unicode="l" horiz-adv-x="666" d="M23 0L352 1556H739L410 0H23Z" />
<glyph unicode="m" horiz-adv-x="1896" d="M23 0L262 1133H571L555 946H563Q603 1021 649 1066T754 1132T891 1153Q1008 1153 1071 1100T1161 946H1169Q1212 1017 1264 1062T1378 1130T1513 1153Q1653 1153 1726 1068T1800 819Q1800 773 1795 721T1778 614L1653
0H1266L1395 631Q1400 651 1404 686T1409 764Q1409 804 1390 825T1339 846Q1302 846 1273 827T1220 770T1177 675T1143 543L1032 0H645L776 631Q781 654 786 690T791 752Q791 802 771 824T719 846Q691 846 665 833T615 786T570 696T528 551L410 0H23Z" />
<glyph unicode="n" horiz-adv-x="1274" d="M23 0L262 1133H571L559 975H567Q604 1039 649 1078T750 1135T879 1153Q985 1153 1050 1109T1147 992T1178 831Q1178 775 1171 716T1153 602L1026 0H639L768 618Q774 644 780 684T786 760Q786 803 764 824T711 846Q673
846 639 815T576 719T526 553L410 0H23Z" />
<glyph unicode="o" horiz-adv-x="1243" d="M520 -20Q381 -20 284 31T135 179T84 416Q84 532 110 640T188 842T317 1005T495 1114T723 1153Q862 1153 959 1102T1108 954T1159 717Q1159 601 1133 493T1055 291T926 128T748 19T520 -20ZM563 270Q597 270 627 296T683
367T726 471T754 596T764 729Q764 773 754 802T724 847T678 862Q644 862 614 836T559 765T516 662T489 537T479 403Q479 337 501 304T563 270Z" />
<glyph unicode="p" horiz-adv-x="1243" d="M-82 -492L262 1133H571L559 1006H567Q598 1054 636 1087T721 1136T825 1153Q927 1153 1002 1104T1118 962T1159 735Q1159 623 1136 514T1070 308T965 138T824 22T651 -20Q600 -20 558 -2T481 48T420 125H412Q405 45
395 -34T356 -246L305 -492H-82ZM573 291Q605 291 634 314T686 378T727 471T754 581T764 698Q764 768 743 805T678 842Q648 842 623 824T576 775T537 704T509 617T491 525T485 434Q485 370 508 331T573 291Z" />
<glyph unicode="q" horiz-adv-x="1243" d="M485 -492L553 -199Q568 -136 584 -77T616 32T643 111H635Q609 75 576 46T498 -2T387 -20Q313 -20 243 22T129 159T84 408Q84 492 103 592T161 791T261 972T402 1103T586 1153Q651 1153 696 1137T777 1085T850 993H858L911
1133H1221L877 -492H485ZM565 291Q595 291 621 309T668 359T707 432T736 519T754 611T760 698Q760 763 741 802T680 842Q648 842 618 819T563 755T519 662T490 551T479 434Q479 365 500 328T565 291Z" />
<glyph unicode="r" horiz-adv-x="895" d="M23 0L262 1133H571L553 944H561Q608 1024 657 1069T765 1134T901 1153Q923 1153 947 1151T981 1145L897 762Q875 771 843 777T774 784Q729 784 690 770T618 723T560 635T516 498L410 0H23Z" />
<glyph unicode="s" horiz-adv-x="1028" d="M387 -20Q274 -20 186 -4T31 43V354Q123 304 202 284T362 264Q386 264 418 268T474 288T498 334Q498 357 488 375T444 417T342 479Q272 518 227 564T161 666T139 795Q139 902 189 982T342 1108T604 1153Q715 1153 808
1127T987 1047L866 795Q810 832 739 860T608 889Q573 889 553 872T532 821Q532 802 545 786T589 754T666 713Q743 675 792 627T866 521T891 393Q891 253 829 162T654 25T387 -20Z" />
<glyph unicode="t" horiz-adv-x="936" d="M410 -20Q262 -20 186 43T109 252Q109 293 116 346T133 440L217 842H63L104 1032L322 1120L459 1360H717L668 1133H956L893 842H604L520 459Q514 430 509 401T504 354Q504 320 521 306T567 291Q605 291 653 304T750 338V47Q687
16 604 -2T410 -20Z" />
<glyph unicode="u" horiz-adv-x="1274" d="M395 -20Q290 -20 224 24T127 141T96 301Q96 358 103 417T121 530L248 1133H635L506 516Q500 490 494 450T487 375Q487 332 509 311T563 289Q597 289 631 320T696 416T748 582L864 1133H1251L1012 0H702L715 158H707Q670
95 625 56T524 -2T395 -20Z" />
<glyph unicode="v" horiz-adv-x="1114" d="M233 0L88 1133H473L494 563Q495 537 495 510T495 459T492 412H500Q505 432 514 456T533 505T551 547L819 1133H1233L621 0H233Z" />
<glyph unicode="w" horiz-adv-x="1686" d="M168 0L102 1133H467V580Q467 525 464 468T455 362H463Q471 395 481 428T501 494T522 555L739 1133H1147L1118 575Q1117 545 1115 488T1104 362H1112Q1125 403 1136 439T1160 509T1188 582L1415 1133H1800L1262 0H840L854
449Q856 501 859 566T868 698T879 819H870Q856 763 837 702T798 583T762 485L575 0H168Z" />
<glyph unicode="x" horiz-adv-x="1159" d="M-119 0L354 578L147 1133H569L645 819L831 1133H1290L825 557L1053 0H625L545 328L334 0H-119Z" />
<glyph unicode="y" horiz-adv-x="1114" d="M25 -492Q-33 -492 -70 -487T-129 -475V-168Q-110 -172 -82 -176T-20 -180Q69 -180 123 -143T221 -29L244 12L82 1133H471L510 612Q513 578 513 546T514 483T512 422H520Q530 453 542 488T567 558T590 616L813 1133H1229L559
-143Q498 -261 423 -338T251 -454T25 -492Z" />
<glyph unicode="z" horiz-adv-x="993" d="M-41 0L2 221L504 834H156L223 1133H1034L981 891L485 299H868L803 0H-41Z" />
<glyph unicode="{" horiz-adv-x="735" d="M463 -324Q267 -324 185 -250T102 -47Q102 -15 105 15T117 80L154 254Q157 266 158 277T160 297Q160 363 124 398T-16 434L37 721Q160 721 214 761T289 893L344 1139Q367 1239 410 1311T536 1423T754 1462H883L821 1182Q748
1181 705 1156T645 1053L592 795Q567 680 492 632T313 573V565Q402 536 442 478T483 332Q483 313 480 294T473 258L438 94Q435 79 434 68T432 45Q432 -2 461 -22T545 -43V-324H463Z" />
<glyph unicode="|" horiz-adv-x="1159" d="M442 -465V1548H713V-465H442Z" />
<glyph unicode="}" horiz-adv-x="735" d="M-123 -324V-43Q-50 -40 -12 -29T43 9T70 86L123 344Q148 460 222 507T401 565V573Q313 602 272 660T231 807Q231 825 235 844T242 881L276 1044Q280 1060 281 1071T283 1094Q283 1137 251 1159T147 1182L201 1462H262Q392
1462 468 1425T578 1325T612 1188Q612 1156 609 1125T598 1059L561 885Q558 872 557 862T555 842Q555 776 600 742T748 707L690 420Q608 420 555 402T471 346T426 246L371 0Q350 -100 303 -173T172 -285T-49 -324H-123Z" />
<glyph unicode="~" horiz-adv-x="1200" d="M561 592Q486 624 430 635T326 647Q266 647 206 612T92 526V807Q145 861 209 888T356 915Q416 915 476 904T637 852Q712 820 770 809T874 797Q931 797 992 832T1106 918V637Q1054 583 989 556T842 528Q782 528 722 540T561 592Z" />
<glyph unicode="&#xa0;" horiz-adv-x="532" />
<glyph unicode="&#xa1;" horiz-adv-x="623" d="M-109 -338L145 608H473L317 -338H-109ZM342 768Q256 768 209 809T162 924Q162 1039 228 1096T399 1153Q506 1153 546 1107T586 1001Q586 936 559 883T478 799T342 768Z" />
<glyph unicode="&#xa2;" horiz-adv-x="1188" d="M373 -20L424 188Q309 220 232 312T154 586Q154 708 177 815T244 1010T351 1166T493 1277T666 1335L698 1483H928L895 1333Q964 1323 1018 1304T1126 1257L1004 971Q940 1002 889 1016T778 1030Q718 1030 675 992T603
894T561 763T547 627Q547 548 578 514T668 479Q740 479 808 504T950 569V258Q881 221 808 199T643 168L602 -20H373Z" />
<glyph unicode="&#xa3;" horiz-adv-x="1188" d="M-18 0L45 313Q123 335 168 364T238 439T276 555L297 651H109L166 930H354L377 1059Q407 1230 474 1322T637 1448T850 1483Q966 1483 1053 1458T1223 1397L1079 1098Q1013 1129 965 1145T866 1161Q831 1161 810
1137T774 1044L750 930H1001L944 651H692L672 557Q652 465 591 411T469 330H1073L1001 0H-18Z" />
<glyph unicode="&#xa4;" horiz-adv-x="1188" d="M909 231L784 354Q744 338 697 326T600 313Q548 313 502 322T414 352L291 233L109 416L236 539Q213 583 202 628T190 723Q190 774 203 820T236 907L106 1032L291 1217L418 1092Q458 1110 507 1122T600 1135Q650
1135 694 1124T784 1087L909 1217L1098 1038L969 909Q989 871 1000 822T1012 723Q1012 671 1001 626T969 537L1092 414L909 231ZM600 571Q643 571 678 591T735 646T756 723Q756 766 735 800T679 854T600 874Q558 874 525 854T471 800T451 723Q451 681 471 647T524
592T600 571Z" />
<glyph unicode="&#xa5;" horiz-adv-x="1188" d="M262 0L303 190H76L119 395H346L371 524H145L190 729H369L182 1462H567L639 975L932 1462H1325L836 729H1020L975 524H752L725 395H948L905 190H682L641 0H262Z" />
<glyph unicode="&#xa6;" horiz-adv-x="1159" d="M444 705V1546H715V705H444ZM444 -444V395H715V-444H444Z" />
<glyph unicode="&#xa7;" horiz-adv-x="1036" d="M377 -25Q268 -25 181 1T37 70V319Q122 267 210 233T395 199Q481 199 513 234T545 303Q545 329 532 351T489 397T410 446Q334 488 278 536T190 644T158 776Q158 824 175 874T232 971T336 1057Q298 1095 277 1147T256
1249Q256 1364 312 1436T471 1543T711 1577Q814 1577 901 1550T1071 1475L971 1251Q916 1288 843 1320T678 1352Q638 1352 614 1342T578 1315T567 1278Q567 1243 592 1211T717 1133Q809 1090 862 1041T938 937T961 821Q961 737 938 681T877 589T793 526Q825 488
843 435T862 326Q862 216 807 138T644 17T377 -25ZM604 643Q633 663 655 694T678 770Q678 806 662 836T612 892T524 940Q500 928 482 908T453 864T442 817Q442 781 464 751T524 694T604 643Z" />
<glyph unicode="&#xa8;" horiz-adv-x="1135" d="M993 1257Q920 1257 872 1283T823 1384Q823 1483 876 1527T1024 1571Q1086 1571 1139 1548T1192 1446Q1192 1361 1149 1309T993 1257ZM506 1257Q433 1257 385 1283T336 1384Q336 1483 389 1527T537 1571Q578 1571
617 1562T681 1525T707 1446Q707 1361 663 1309T506 1257Z" />
<glyph unicode="&#xa9;" horiz-adv-x="1688" d="M844 -20Q681 -20 544 35T305 192T148 430T92 731Q92 895 147 1032T304 1270T543 1427T844 1483Q1008 1483 1145 1428T1383 1271T1539 1032T1595 731Q1595 568 1540 431T1383 192T1145 36T844 -20ZM846 262Q625
262 513 391T401 735Q401 875 449 979T595 1140T836 1198Q928 1198 1006 1178T1157 1120L1065 915Q1013 943 963 957T854 971Q775 971 729 910T682 731Q682 604 725 547T860 489Q925 489 991 505T1118 557V326Q1055 294 991 278T846 262ZM844 143Q969 143 1073
186T1252 307T1369 493T1411 731Q1411 861 1370 968T1253 1154T1073 1276T844 1319Q717 1319 612 1276T431 1155T314 969T272 731Q272 601 313 494T431 308T612 186T844 143Z" />
<glyph unicode="&#xaa;" horiz-adv-x="827" d="M352 729Q308 729 259 753T174 837T139 1001Q139 1081 161 1164T227 1317T335 1431T483 1475Q563 1475 609 1448T696 1376H705L741 1462H940L770 741H575L584 827H575Q537 786 483 758T352 729ZM481 911Q515 911
540 930T582 980T609 1047T624 1117T629 1178Q629 1222 612 1257T557 1292Q523 1292 497 1265T451 1196T422 1105T412 1012Q412 964 431 938T481 911Z" />
<glyph unicode="&#xab;" horiz-adv-x="1276" d="M244 76L61 553V563L469 1081L733 877L467 543L578 213L244 76ZM803 76L608 582V592L1032 1087L1292 877L1014 571L1137 213L803 76Z" />
<glyph unicode="&#xac;" horiz-adv-x="1200" d="M1106 856V238H836V588H92V856H1106Z" />
<glyph unicode="&#xad;" horiz-adv-x="674" d="M23 393L86 705H639L575 393H23Z" />
<glyph unicode="&#xae;" horiz-adv-x="1688" d="M518 313V1188H797Q1010 1188 1101 1118T1192 918Q1192 813 1151 759T1051 676L1245 313H967L821 633H786V313H518ZM786 809H797Q855 809 888 830T922 907Q922 961 889 977T799 993H786V809ZM844 -20Q681 -20 544
35T305 192T148 430T92 731Q92 895 147 1032T304 1270T543 1427T844 1483Q1008 1483 1145 1428T1383 1271T1539 1032T1595 731Q1595 568 1540 431T1383 192T1145 36T844 -20ZM844 143Q969 143 1073 186T1252 307T1369 493T1411 731Q1411 861 1370 968T1253 1154T1073
1276T844 1319Q717 1319 612 1276T431 1155T314 969T272 731Q272 601 313 494T431 308T612 186T844 143Z" />
<glyph unicode="&#xaf;" horiz-adv-x="922" d="M207 1554L264 1800H1194L1137 1554H207Z" />
<glyph unicode="&#xb0;" horiz-adv-x="864" d="M432 750Q325 750 242 796T111 924T63 1114Q63 1221 110 1304T241 1435T432 1483Q540 1483 623 1435T753 1304T801 1114Q801 1006 754 924T623 796T432 750ZM432 987Q492 987 527 1022T563 1114Q563 1174 528 1210T432
1247Q372 1247 337 1211T301 1114Q301 1057 336 1022T432 987Z" />
<glyph unicode="&#xb1;" horiz-adv-x="1200" d="M92 0V268H1106V0H92ZM733 944H1106V676H733V315H465V676H92V944H465V1311H733V944Z" />
<glyph unicode="&#xb2;" horiz-adv-x="848" d="M125 850L168 1055L444 1266Q512 1317 551 1352T608 1414T625 1464Q625 1492 606 1504T561 1516Q526 1516 476 1498T373 1436L254 1626Q335 1688 422 1718T643 1749Q771 1749 858 1691T946 1532Q946 1458 913 1398T811
1280T639 1155L561 1106H881L829 850H125Z" />
<glyph unicode="&#xb3;" horiz-adv-x="848" d="M483 838Q376 838 305 854T172 907V1133Q235 1090 304 1071T428 1051Q503 1051 541 1070T580 1130Q580 1155 558 1176T467 1198H346L389 1393H485Q533 1393 568 1402T623 1431T643 1481Q643 1509 621 1523T567 1538Q529
1538 489 1526T383 1473L283 1655Q363 1704 440 1726T625 1749Q708 1749 777 1726T887 1656T928 1540Q928 1436 863 1386T696 1311V1303Q788 1280 825 1233T862 1120Q862 1044 819 980T691 877T483 838Z" />
<glyph unicode="&#xb4;" horiz-adv-x="821" d="M229 1241V1264Q277 1303 327 1355T426 1463T512 1569H950V1554Q928 1527 876 1485T758 1396T627 1308T514 1241H229Z" />
<glyph unicode="&#xb5;" horiz-adv-x="1288" d="M-82 -492L262 1133H649L520 516Q514 490 508 450T502 375Q502 332 524 311T578 289Q627 289 659 315T715 404T762 582L879 1133H1266L1026 0H737L743 123H735Q713 75 684 44T620 -4T545 -20Q494 -20 462 -2T414
57H406Q402 4 395 -45T379 -143T358 -246L305 -492H-82Z" />
<glyph unicode="&#xb6;" horiz-adv-x="1317" d="M647 -260V559Q616 550 591 546T522 541Q427 541 350 567T217 651T132 806T102 1042Q102 1189 134 1288T227 1446T370 1530T553 1556H1186V-260H995V1327H838V-260H647Z" />
<glyph unicode="&#xb7;" horiz-adv-x="627" d="M289 532Q211 532 163 569T115 684Q115 806 188 861T359 917Q439 917 489 880T539 762Q539 630 471 581T289 532Z" />
<glyph unicode="&#xb8;" horiz-adv-x="383" d="M-29 -492Q-90 -492 -137 -484T-221 -463V-258Q-187 -268 -138 -276T-70 -285Q-48 -285 -33 -280T-10 -265T-2 -236Q-2 -208 -28 -181T-147 -135L-72 0H133L109 -41Q187 -57 237 -102T287 -236Q287 -316 250 -373T143
-461T-29 -492Z" />
<glyph unicode="&#xb9;" horiz-adv-x="848" d="M365 850L446 1214Q462 1287 477 1340T502 1421Q482 1405 458 1385T428 1362L309 1284L190 1468L616 1729H868L682 850H365Z" />
<glyph unicode="&#xba;" horiz-adv-x="817" d="M465 727Q320 727 238 805T156 1024Q156 1113 182 1195T261 1341T394 1442T584 1479Q722 1479 806 1400T891 1169Q891 1084 866 1005T790 863T657 764T465 727ZM489 932Q522 932 547 954T588 1013T613 1093T621 1176Q621
1220 606 1247T559 1274Q525 1274 501 1249T460 1184T436 1103T428 1028Q428 976 444 954T489 932Z" />
<glyph unicode="&#xbb;" horiz-adv-x="1276" d="M807 43L543 248L809 582L698 911L1032 1049L1214 571V561L807 43ZM244 35L-14 248L262 553L141 911L473 1049L668 543V532L244 35Z" />
<glyph unicode="&#xbc;" horiz-adv-x="1909" d="M307 0L1396 1462H1687L604 0H307ZM347 584L428 948Q444 1021 459 1074T484 1155Q464 1139 440 1119T410 1096L291 1018L172 1202L598 1463H850L664 584H347ZM1362 0L1389 123H992L1022 301L1512 879H1837L1719
322H1831L1790 123H1678L1651 0H1362ZM1268 322H1430L1471 479Q1482 520 1496 570T1518 639Q1501 613 1467 570T1411 500L1268 322Z" />
<glyph unicode="&#xbd;" horiz-adv-x="2001" d="M293 0L1382 1462H1673L590 0H293ZM347 586L428 950Q444 1023 459 1076T484 1157Q464 1141 440 1121T410 1098L291 1020L172 1204L598 1465H850L664 586H347ZM1098 0L1141 205L1417 416Q1485 467 1524 502T1581
564T1598 614Q1598 642 1579 654T1534 666Q1499 666 1449 648T1346 586L1227 776Q1308 838 1395 868T1616 899Q1744 899 1831 841T1919 682Q1919 608 1886 548T1784 430T1612 305L1534 256H1854L1802 0H1098Z" />
<glyph unicode="&#xbe;" horiz-adv-x="1954" d="M432 572Q325 572 254 588T121 641V867Q184 824 253 805T377 785Q452 785 490 804T529 864Q529 889 507 910T416 932H295L338 1127H434Q482 1127 517 1136T572 1165T592 1215Q592 1243 570 1257T516 1272Q478 1272
438 1260T332 1207L232 1389Q312 1438 389 1460T574 1483Q657 1483 726 1460T836 1390T877 1274Q877 1170 812 1120T645 1045V1037Q737 1014 774 967T811 854Q811 778 768 714T640 611T432 572ZM361 0L1450 1462H1741L658 0H361ZM1407 0L1434 123H1037L1067 301L1557
879H1882L1764 322H1876L1835 123H1723L1696 0H1407ZM1313 322H1475L1516 479Q1527 520 1541 570T1563 639Q1546 613 1512 570T1456 500L1313 322Z" />
<glyph unicode="&#xbf;" horiz-adv-x="999" d="M743 617Q723 505 693 436T610 314T471 201Q405 157 370 128T322 76T309 29Q309 -2 328 -21T399 -41Q455 -41 536 -14T712 68L831 -215Q736 -271 618 -310T370 -350Q168 -350 50 -260T-68 -12Q-68 101 -29 174T74
297T209 390Q287 437 324 468T380 532T415 617H743ZM659 1158Q765 1158 805 1112T846 1006Q846 908 786 841T602 773Q516 773 469 814T422 928Q422 1044 488 1101T659 1158Z" />
<glyph unicode="&#xc0;" horiz-adv-x="1384" d="M-121 0L623 1462H1126L1249 0H868L858 274H410L285 0H-121ZM553 586H846L831 1006Q830 1055 829 1103T829 1194H823Q808 1148 791 1104T752 1014L553 586ZM854 1571Q809 1613 760 1665T668 1773T600 1878V1899H995Q1004
1855 1016 1805T1047 1701T1089 1596V1571H854Z" />
<glyph unicode="&#xc1;" horiz-adv-x="1384" d="M-121 0L623 1462H1126L1249 0H868L858 274H410L285 0H-121ZM553 586H846L831 1006Q830 1055 829 1103T829 1194H823Q808 1148 791 1104T752 1014L553 586ZM702 1571V1594Q750 1633 800 1685T899 1793T985 1899H1423V1884Q1401
1857 1349 1815T1231 1726T1100 1638T987 1571H702Z" />
<glyph unicode="&#xc2;" horiz-adv-x="1384" d="M-121 0L623 1462H1126L1249 0H868L858 274H410L285 0H-121ZM553 586H846L831 1006Q830 1055 829 1103T829 1194H823Q808 1148 791 1104T752 1014L553 586ZM419 1571V1594Q467 1637 523 1691T634 1800T729 1899H1175Q1196
1854 1226 1798T1291 1688T1355 1594V1571H1089Q1067 1591 1038 1623T980 1689T933 1745Q877 1701 817 1656T694 1571H419Z" />
<glyph unicode="&#xc3;" horiz-adv-x="1384" d="M-121 0L623 1462H1126L1249 0H868L858 274H410L285 0H-121ZM553 586H846L831 1006Q830 1055 829 1103T829 1194H823Q808 1148 791 1104T752 1014L553 586ZM489 1567Q512 1691 556 1766T662 1875T803 1909Q847 1909
884 1894T955 1860T1022 1826T1089 1811Q1124 1811 1154 1835T1204 1911H1394Q1369 1785 1324 1710T1216 1602T1073 1569Q1025 1569 985 1584T909 1618T841 1652T774 1667Q743 1667 714 1640T678 1567H489Z" />
<glyph unicode="&#xc4;" horiz-adv-x="1384" d="M-121 0L623 1462H1126L1249 0H868L858 274H410L285 0H-121ZM553 586H846L831 1006Q830 1055 829 1103T829 1194H823Q808 1148 791 1104T752 1014L553 586ZM1159 1587Q1086 1587 1038 1613T989 1714Q989 1813 1042
1857T1190 1901Q1252 1901 1305 1878T1358 1776Q1358 1691 1315 1639T1159 1587ZM672 1587Q599 1587 551 1613T502 1714Q502 1813 555 1857T703 1901Q744 1901 783 1892T847 1855T873 1776Q873 1691 829 1639T672 1587Z" />
<glyph unicode="&#xc5;" horiz-adv-x="1384" d="M-121 0L623 1462H1126L1249 0H868L858 274H410L285 0H-121ZM553 586H846L831 1006Q830 1055 829 1103T829 1194H823Q808 1148 791 1104T752 1014L553 586ZM920 1567Q802 1567 727 1634T652 1819Q652 1938 727 2005T920
2073Q1032 2073 1110 2006T1188 1821Q1188 1703 1111 1635T920 1567ZM920 1735Q955 1735 981 1758T1008 1819Q1008 1857 982 1881T920 1905Q885 1905 859 1881T832 1819Q832 1782 855 1759T920 1735Z" />
<glyph unicode="&#xc6;" horiz-adv-x="1937" d="M-125 0L784 1462H1997L1931 1145H1454L1407 915H1851L1780 598H1335L1278 322H1755L1688 0H819L877 274H459L289 0H-125ZM662 602H948L1061 1145H993L662 602Z" />
<glyph unicode="&#xc7;" horiz-adv-x="1290" d="M645 -20Q462 -20 342 51T163 251T104 549Q104 680 132 813T219 1066T370 1281T589 1430T881 1485Q1027 1485 1143 1451T1362 1354L1214 1049Q1121 1104 1043 1131T881 1159Q810 1159 751 1127T645 1038T566 907T517
746T500 569Q500 436 556 370T717 303Q806 303 891 325T1085 393V70Q978 22 869 1T645 -20ZM585 -492Q524 -492 477 -484T393 -463V-258Q427 -268 476 -276T544 -285Q566 -285 581 -280T604 -265T612 -236Q612 -208 586 -181T467 -135L542 0H747L723 -41Q801 -57
851 -102T901 -236Q901 -316 864 -373T757 -461T585 -492Z" />
<glyph unicode="&#xc8;" horiz-adv-x="1151" d="M33 0L342 1462H1210L1145 1145H668L621 915H1065L993 598H549L492 322H969L901 0H33ZM758 1571Q713 1613 664 1665T572 1773T504 1878V1899H899Q908 1855 920 1805T951 1701T993 1596V1571H758Z" />
<glyph unicode="&#xc9;" horiz-adv-x="1151" d="M33 0L342 1462H1210L1145 1145H668L621 915H1065L993 598H549L492 322H969L901 0H33ZM606 1571V1594Q654 1633 704 1685T803 1793T889 1899H1327V1884Q1305 1857 1253 1815T1135 1726T1004 1638T891 1571H606Z" />
<glyph unicode="&#xca;" horiz-adv-x="1151" d="M33 0L342 1462H1210L1145 1145H668L621 915H1065L993 598H549L492 322H969L901 0H33ZM323 1571V1594Q371 1637 427 1691T538 1800T633 1899H1079Q1100 1854 1130 1798T1195 1688T1259 1594V1571H993Q971 1591 942
1623T884 1689T837 1745Q781 1701 721 1656T598 1571H323Z" />
<glyph unicode="&#xcb;" horiz-adv-x="1151" d="M33 0L342 1462H1210L1145 1145H668L621 915H1065L993 598H549L492 322H969L901 0H33ZM1063 1587Q990 1587 942 1613T893 1714Q893 1813 946 1857T1094 1901Q1156 1901 1209 1878T1262 1776Q1262 1691 1219 1639T1063
1587ZM576 1587Q503 1587 455 1613T406 1714Q406 1813 459 1857T607 1901Q648 1901 687 1892T751 1855T777 1776Q777 1691 733 1639T576 1587Z" />
<glyph unicode="&#xcc;" horiz-adv-x="723" d="M33 0L342 1462H733L424 0H33ZM524 1571Q479 1613 430 1665T338 1773T270 1878V1899H665Q674 1855 686 1805T717 1701T759 1596V1571H524Z" />
<glyph unicode="&#xcd;" horiz-adv-x="723" d="M33 0L342 1462H733L424 0H33ZM378 1571V1594Q426 1633 476 1685T575 1793T661 1899H1099V1884Q1077 1857 1025 1815T907 1726T776 1638T663 1571H378Z" />
<glyph unicode="&#xce;" horiz-adv-x="723" d="M33 0L342 1462H733L424 0H33ZM88 1571V1594Q136 1637 192 1691T303 1800T398 1899H844Q865 1854 895 1798T960 1688T1024 1594V1571H758Q736 1591 707 1623T649 1689T602 1745Q546 1701 486 1656T363 1571H88Z" />
<glyph unicode="&#xcf;" horiz-adv-x="723" d="M33 0L342 1462H733L424 0H33ZM827 1587Q754 1587 706 1613T657 1714Q657 1813 710 1857T858 1901Q920 1901 973 1878T1026 1776Q1026 1691 983 1639T827 1587ZM340 1587Q267 1587 219 1613T170 1714Q170 1813 223
1857T371 1901Q412 1901 451 1892T515 1855T541 1776Q541 1691 497 1639T340 1587Z" />
<glyph unicode="&#xd0;" horiz-adv-x="1401" d="M33 0L152 563H10L80 883H219L342 1462H772Q1043 1462 1190 1319T1337 909Q1337 739 1303 597T1202 344T1037 157T811 40T526 0H33ZM494 324H563Q630 324 688 350T793 426T873 546T924 706T942 901Q942 1017 888
1080T737 1143H666L610 883H788L719 563H543L494 324Z" />
<glyph unicode="&#xd1;" horiz-adv-x="1618" d="M33 0L342 1462H797L1083 479H1092Q1097 523 1106 591T1127 729T1149 850L1280 1462H1628L1319 0H864L575 1028H567Q566 1008 561 960T548 849T531 724T510 610L381 0H33ZM616 1567Q639 1691 683 1766T789 1875T930
1909Q974 1909 1011 1894T1082 1860T1149 1826T1216 1811Q1251 1811 1281 1835T1331 1911H1521Q1496 1785 1451 1710T1343 1602T1200 1569Q1152 1569 1112 1584T1036 1618T968 1652T901 1667Q870 1667 841 1640T805 1567H616Z" />
<glyph unicode="&#xd2;" horiz-adv-x="1509" d="M666 -20Q479 -20 355 50T167 246T104 543Q104 657 125 770T189 988T297 1184T450 1341T649 1447T897 1485Q1167 1485 1306 1331T1446 922Q1446 808 1426 695T1364 476T1258 280T1108 123T911 18T666 -20ZM700 303Q749
303 794 325T878 387T949 484T1004 609T1039 756T1051 918Q1051 1031 1003 1096T864 1161Q809 1161 761 1136T673 1067T600 964T546 836T512 693T500 545Q500 466 522 412T589 331T700 303ZM903 1571Q858 1613 809 1665T717 1773T649 1878V1899H1044Q1053 1855
1065 1805T1096 1701T1138 1596V1571H903Z" />
<glyph unicode="&#xd3;" horiz-adv-x="1509" d="M666 -20Q479 -20 355 50T167 246T104 543Q104 657 125 770T189 988T297 1184T450 1341T649 1447T897 1485Q1167 1485 1306 1331T1446 922Q1446 808 1426 695T1364 476T1258 280T1108 123T911 18T666 -20ZM700 303Q749
303 794 325T878 387T949 484T1004 609T1039 756T1051 918Q1051 1031 1003 1096T864 1161Q809 1161 761 1136T673 1067T600 964T546 836T512 693T500 545Q500 466 522 412T589 331T700 303ZM751 1571V1594Q799 1633 849 1685T948 1793T1034 1899H1472V1884Q1450
1857 1398 1815T1280 1726T1149 1638T1036 1571H751Z" />
<glyph unicode="&#xd4;" horiz-adv-x="1509" d="M666 -20Q479 -20 355 50T167 246T104 543Q104 657 125 770T189 988T297 1184T450 1341T649 1447T897 1485Q1167 1485 1306 1331T1446 922Q1446 808 1426 695T1364 476T1258 280T1108 123T911 18T666 -20ZM700 303Q749
303 794 325T878 387T949 484T1004 609T1039 756T1051 918Q1051 1031 1003 1096T864 1161Q809 1161 761 1136T673 1067T600 964T546 836T512 693T500 545Q500 466 522 412T589 331T700 303ZM469 1571V1594Q517 1637 573 1691T684 1800T779 1899H1225Q1246 1854
1276 1798T1341 1688T1405 1594V1571H1139Q1117 1591 1088 1623T1030 1689T983 1745Q927 1701 867 1656T744 1571H469Z" />
<glyph unicode="&#xd5;" horiz-adv-x="1509" d="M666 -20Q479 -20 355 50T167 246T104 543Q104 657 125 770T189 988T297 1184T450 1341T649 1447T897 1485Q1167 1485 1306 1331T1446 922Q1446 808 1426 695T1364 476T1258 280T1108 123T911 18T666 -20ZM700 303Q749
303 794 325T878 387T949 484T1004 609T1039 756T1051 918Q1051 1031 1003 1096T864 1161Q809 1161 761 1136T673 1067T600 964T546 836T512 693T500 545Q500 466 522 412T589 331T700 303ZM538 1567Q561 1691 605 1766T711 1875T852 1909Q896 1909 933 1894T1004
1860T1071 1826T1138 1811Q1173 1811 1203 1835T1253 1911H1443Q1418 1785 1373 1710T1265 1602T1122 1569Q1074 1569 1034 1584T958 1618T890 1652T823 1667Q792 1667 763 1640T727 1567H538Z" />
<glyph unicode="&#xd6;" horiz-adv-x="1509" d="M666 -20Q479 -20 355 50T167 246T104 543Q104 657 125 770T189 988T297 1184T450 1341T649 1447T897 1485Q1167 1485 1306 1331T1446 922Q1446 808 1426 695T1364 476T1258 280T1108 123T911 18T666 -20ZM700 303Q749
303 794 325T878 387T949 484T1004 609T1039 756T1051 918Q1051 1031 1003 1096T864 1161Q809 1161 761 1136T673 1067T600 964T546 836T512 693T500 545Q500 466 522 412T589 331T700 303ZM1208 1587Q1135 1587 1087 1613T1038 1714Q1038 1813 1091 1857T1239
1901Q1301 1901 1354 1878T1407 1776Q1407 1691 1364 1639T1208 1587ZM721 1587Q648 1587 600 1613T551 1714Q551 1813 604 1857T752 1901Q793 1901 832 1892T896 1855T922 1776Q922 1691 878 1639T721 1587Z" />
<glyph unicode="&#xd7;" horiz-adv-x="1200" d="M868 1180L1057 997L782 723L1053 451L868 266L594 537L324 268L143 455L408 723L141 991L324 1180L594 913L868 1180Z" />
<glyph unicode="&#xd8;" horiz-adv-x="1509" d="M254 -86L94 31L211 176Q157 247 131 339T104 543Q104 657 125 770T188 988T295 1184T445 1341T639 1447T879 1485Q974 1485 1052 1466T1194 1413L1286 1528L1442 1409L1343 1284Q1394 1214 1420 1122T1446 922Q1446
808 1425 695T1362 476T1257 281T1109 124T918 19T684 -20Q586 -20 506 -3T360 49L254 -86ZM700 303Q751 303 796 323T881 380T951 469T1004 584T1037 719T1049 870Q1049 883 1049 894T1049 915L586 332Q609 318 637 311T700 303ZM502 539L967 1128Q945 1144 916
1152T852 1161Q801 1161 756 1140T671 1080T601 988T548 871T514 736T502 588Q502 577 502 564T502 539Z" />
<glyph unicode="&#xd9;" horiz-adv-x="1436" d="M610 -20Q458 -20 349 34T183 185T125 403Q125 434 128 470T137 539L336 1462H727L532 549Q526 520 522 490T518 434Q518 374 551 341T647 307Q706 307 747 333T818 416T868 569L1059 1462H1450L1251 530Q1214 352
1138 230T934 44T610 -20ZM856 1571Q811 1613 762 1665T670 1773T602 1878V1899H997Q1006 1855 1018 1805T1049 1701T1091 1596V1571H856Z" />
<glyph unicode="&#xda;" horiz-adv-x="1436" d="M610 -20Q458 -20 349 34T183 185T125 403Q125 434 128 470T137 539L336 1462H727L532 549Q526 520 522 490T518 434Q518 374 551 341T647 307Q706 307 747 333T818 416T868 569L1059 1462H1450L1251 530Q1214 352
1138 230T934 44T610 -20ZM704 1571V1594Q752 1633 802 1685T901 1793T987 1899H1425V1884Q1403 1857 1351 1815T1233 1726T1102 1638T989 1571H704Z" />
<glyph unicode="&#xdb;" horiz-adv-x="1436" d="M610 -20Q458 -20 349 34T183 185T125 403Q125 434 128 470T137 539L336 1462H727L532 549Q526 520 522 490T518 434Q518 374 551 341T647 307Q706 307 747 333T818 416T868 569L1059 1462H1450L1251 530Q1214 352
1138 230T934 44T610 -20ZM422 1571V1594Q470 1637 526 1691T637 1800T732 1899H1178Q1199 1854 1229 1798T1294 1688T1358 1594V1571H1092Q1070 1591 1041 1623T983 1689T936 1745Q880 1701 820 1656T697 1571H422Z" />
<glyph unicode="&#xdc;" horiz-adv-x="1436" d="M610 -20Q458 -20 349 34T183 185T125 403Q125 434 128 470T137 539L336 1462H727L532 549Q526 520 522 490T518 434Q518 374 551 341T647 307Q706 307 747 333T818 416T868 569L1059 1462H1450L1251 530Q1214 352
1138 230T934 44T610 -20ZM1161 1587Q1088 1587 1040 1613T991 1714Q991 1813 1044 1857T1192 1901Q1254 1901 1307 1878T1360 1776Q1360 1691 1317 1639T1161 1587ZM674 1587Q601 1587 553 1613T504 1714Q504 1813 557 1857T705 1901Q746 1901 785 1892T849 1855T875
1776Q875 1691 831 1639T674 1587Z" />
<glyph unicode="&#xdd;" horiz-adv-x="1237" d="M281 0L401 567L164 1462H567L657 920L969 1462H1405L793 567L672 0H281ZM579 1571V1594Q627 1633 677 1685T776 1793T862 1899H1300V1884Q1278 1857 1226 1815T1108 1726T977 1638T864 1571H579Z" />
<glyph unicode="&#xde;" horiz-adv-x="1276" d="M33 0L342 1462H733L690 1249H715Q895 1249 1003 1190T1160 1032T1208 811Q1208 680 1162 580T1030 411T827 309T567 274H481L424 0H33ZM551 594H614Q677 594 722 615T792 682T817 799Q817 852 779 892T668 932H623L551
594Z" />
<glyph unicode="&#xdf;" horiz-adv-x="1460" d="M-53 -492Q-107 -492 -166 -484T-260 -465V-162Q-232 -169 -202 -174T-143 -180Q-69 -180 -31 -150T20 -55L264 1096Q296 1247 366 1352T561 1512T883 1567Q1144 1567 1271 1461T1399 1194Q1399 1111 1375 1050T1304
943T1186 864Q1103 824 1086 799T1069 762Q1069 727 1093 707T1157 666T1241 614Q1300 573 1331 515T1362 373Q1362 276 1314 186T1156 38T862 -20Q767 -20 703 -8T588 25V324Q641 298 719 280T858 262Q917 262 945 284T973 334Q973 356 965 372T928 411T840 471Q737
537 706 595T674 713Q674 784 696 830T765 913T881 989Q928 1016 956 1040T997 1090T1010 1145Q1010 1186 979 1225T852 1264Q800 1264 758 1242T688 1176T645 1067L393 -117Q370 -225 318 -310T175 -443T-53 -492Z" />
<glyph unicode="&#xe0;" horiz-adv-x="1243" d="M406 -20Q319 -20 246 21T128 156T84 412Q84 495 103 594T162 791T262 972T403 1103T588 1153Q653 1153 701 1133T786 1078T850 993H858L911 1133H1221L981 0H672L682 123H674Q644 81 607 49T522 -1T406 -20ZM565
291Q609 291 646 331T709 436T748 573Q754 604 757 635T760 698Q760 763 740 802T678 842Q646 842 617 819T562 755T519 662T490 551T479 434Q479 365 500 328T565 291ZM711 1241Q666 1283 617 1335T525 1443T457 1548V1569H852Q861 1525 873 1475T904 1371T946
1266V1241H711Z" />
<glyph unicode="&#xe1;" horiz-adv-x="1243" d="M406 -20Q319 -20 246 21T128 156T84 412Q84 495 103 594T162 791T262 972T403 1103T588 1153Q653 1153 701 1133T786 1078T850 993H858L911 1133H1221L981 0H672L682 123H674Q644 81 607 49T522 -1T406 -20ZM565
291Q609 291 646 331T709 436T748 573Q754 604 757 635T760 698Q760 763 740 802T678 842Q646 842 617 819T562 755T519 662T490 551T479 434Q479 365 500 328T565 291ZM559 1241V1264Q607 1303 657 1355T756 1463T842 1569H1280V1554Q1258 1527 1206 1485T1088
1396T957 1308T844 1241H559Z" />
<glyph unicode="&#xe2;" horiz-adv-x="1243" d="M406 -20Q319 -20 246 21T128 156T84 412Q84 495 103 594T162 791T262 972T403 1103T588 1153Q653 1153 701 1133T786 1078T850 993H858L911 1133H1221L981 0H672L682 123H674Q644 81 607 49T522 -1T406 -20ZM565
291Q609 291 646 331T709 436T748 573Q754 604 757 635T760 698Q760 763 740 802T678 842Q646 842 617 819T562 755T519 662T490 551T479 434Q479 365 500 328T565 291ZM276 1241V1264Q324 1307 380 1361T491 1470T586 1569H1032Q1053 1524 1083 1468T1148 1358T1212
1264V1241H946Q924 1261 895 1293T837 1359T790 1415Q734 1371 674 1326T551 1241H276Z" />
<glyph unicode="&#xe3;" horiz-adv-x="1243" d="M406 -20Q319 -20 246 21T128 156T84 412Q84 495 103 594T162 791T262 972T403 1103T588 1153Q653 1153 701 1133T786 1078T850 993H858L911 1133H1221L981 0H672L682 123H674Q644 81 607 49T522 -1T406 -20ZM565
291Q609 291 646 331T709 436T748 573Q754 604 757 635T760 698Q760 763 740 802T678 842Q646 842 617 819T562 755T519 662T490 551T479 434Q479 365 500 328T565 291ZM346 1237Q369 1361 413 1436T519 1545T660 1579Q704 1579 741 1564T812 1530T879 1496T946
1481Q981 1481 1011 1505T1061 1581H1251Q1226 1455 1181 1380T1073 1272T930 1239Q882 1239 842 1254T766 1288T698 1322T631 1337Q600 1337 571 1310T535 1237H346Z" />
<glyph unicode="&#xe4;" horiz-adv-x="1243" d="M406 -20Q319 -20 246 21T128 156T84 412Q84 495 103 594T162 791T262 972T403 1103T588 1153Q653 1153 701 1133T786 1078T850 993H858L911 1133H1221L981 0H672L682 123H674Q644 81 607 49T522 -1T406 -20ZM565
291Q609 291 646 331T709 436T748 573Q754 604 757 635T760 698Q760 763 740 802T678 842Q646 842 617 819T562 755T519 662T490 551T479 434Q479 365 500 328T565 291ZM1016 1257Q943 1257 895 1283T846 1384Q846 1483 899 1527T1047 1571Q1109 1571 1162 1548T1215
1446Q1215 1361 1172 1309T1016 1257ZM529 1257Q456 1257 408 1283T359 1384Q359 1483 412 1527T560 1571Q601 1571 640 1562T704 1525T730 1446Q730 1361 686 1309T529 1257Z" />
<glyph unicode="&#xe5;" horiz-adv-x="1243" d="M406 -20Q319 -20 246 21T128 156T84 412Q84 495 103 594T162 791T262 972T403 1103T588 1153Q653 1153 701 1133T786 1078T850 993H858L911 1133H1221L981 0H672L682 123H674Q644 81 607 49T522 -1T406 -20ZM565
291Q609 291 646 331T709 436T748 573Q754 604 757 635T760 698Q760 763 740 802T678 842Q646 842 617 819T562 755T519 662T490 551T479 434Q479 365 500 328T565 291ZM776 1237Q658 1237 583 1304T508 1489Q508 1608 583 1675T776 1743Q888 1743 966 1676T1044
1491Q1044 1373 967 1305T776 1237ZM776 1405Q811 1405 837 1428T864 1489Q864 1527 838 1551T776 1575Q741 1575 715 1551T688 1489Q688 1452 711 1429T776 1405Z" />
<glyph unicode="&#xe6;" horiz-adv-x="1788" d="M406 -20Q319 -20 246 21T128 156T84 412Q84 495 103 594T162 791T262 972T403 1103T588 1153Q653 1153 700 1135T783 1082T850 993H858L911 1133H1118V1038Q1166 1085 1239 1119T1397 1153Q1554 1153 1648 1067T1743
838Q1743 744 1707 668T1597 536T1408 452T1135 422H1075Q1075 418 1075 415T1075 406Q1075 330 1116 294T1239 258Q1325 258 1402 284T1567 356V82Q1488 36 1405 8T1192 -20Q1101 -20 1036 8T930 92L899 0H672L682 123H674Q644 81 607 49T522 -1T406 -20ZM565
291Q598 291 627 314T680 378T721 468T748 573Q754 604 756 635T758 698Q758 763 735 802T670 842Q638 842 609 819T557 755T516 662T489 551T479 434Q479 365 500 328T565 291ZM1114 664H1143Q1230 664 1281 687T1354 745T1376 815Q1376 847 1356 869T1292 891Q1247
891 1209 856T1146 769T1114 664Z" />
<glyph unicode="&#xe7;" horiz-adv-x="1032" d="M506 -20Q391 -20 295 27T142 176T84 442Q84 562 111 669T191 865T317 1018T486 1118T690 1153Q796 1153 883 1133T1057 1073L934 786Q883 809 824 827T709 846Q649 846 605 809T531 712T488 588T473 467Q473 401
488 363T531 308T598 291Q670 291 737 314T881 377V70Q801 27 713 4T506 -20ZM385 -492Q324 -492 277 -484T193 -463V-258Q227 -268 276 -276T344 -285Q366 -285 381 -280T404 -265T412 -236Q412 -208 386 -181T267 -135L342 0H547L523 -41Q601 -57 651 -102T701
-236Q701 -316 664 -373T557 -461T385 -492Z" />
<glyph unicode="&#xe8;" horiz-adv-x="1186" d="M532 -20Q389 -20 289 34T137 188T84 428Q84 567 123 697T243 930T446 1093T733 1153Q924 1153 1032 1067T1141 838Q1141 744 1105 668T995 536T805 452T532 422H473Q473 418 473 415T473 406Q473 330 514 294T637
258Q723 258 800 284T965 356V82Q874 36 777 8T532 -20ZM512 664H541Q628 664 679 687T752 745T774 815Q774 847 754 869T690 891Q645 891 607 856T544 769T512 664ZM692 1241Q647 1283 598 1335T506 1443T438 1548V1569H833Q842 1525 854 1475T885 1371T927 1266V1241H692Z"
/>
<glyph unicode="&#xe9;" horiz-adv-x="1186" d="M532 -20Q389 -20 289 34T137 188T84 428Q84 567 123 697T243 930T446 1093T733 1153Q924 1153 1032 1067T1141 838Q1141 744 1105 668T995 536T805 452T532 422H473Q473 418 473 415T473 406Q473 330 514 294T637
258Q723 258 800 284T965 356V82Q874 36 777 8T532 -20ZM512 664H541Q628 664 679 687T752 745T774 815Q774 847 754 869T690 891Q645 891 607 856T544 769T512 664ZM540 1241V1264Q588 1303 638 1355T737 1463T823 1569H1261V1554Q1239 1527 1187 1485T1069 1396T938
1308T825 1241H540Z" />
<glyph unicode="&#xea;" horiz-adv-x="1186" d="M532 -20Q389 -20 289 34T137 188T84 428Q84 567 123 697T243 930T446 1093T733 1153Q924 1153 1032 1067T1141 838Q1141 744 1105 668T995 536T805 452T532 422H473Q473 418 473 415T473 406Q473 330 514 294T637
258Q723 258 800 284T965 356V82Q874 36 777 8T532 -20ZM512 664H541Q628 664 679 687T752 745T774 815Q774 847 754 869T690 891Q645 891 607 856T544 769T512 664ZM258 1241V1264Q306 1307 362 1361T473 1470T568 1569H1014Q1035 1524 1065 1468T1130 1358T1194
1264V1241H928Q906 1261 877 1293T819 1359T772 1415Q716 1371 656 1326T533 1241H258Z" />
<glyph unicode="&#xeb;" horiz-adv-x="1186" d="M532 -20Q389 -20 289 34T137 188T84 428Q84 567 123 697T243 930T446 1093T733 1153Q924 1153 1032 1067T1141 838Q1141 744 1105 668T995 536T805 452T532 422H473Q473 418 473 415T473 406Q473 330 514 294T637
258Q723 258 800 284T965 356V82Q874 36 777 8T532 -20ZM512 664H541Q628 664 679 687T752 745T774 815Q774 847 754 869T690 891Q645 891 607 856T544 769T512 664ZM997 1257Q924 1257 876 1283T827 1384Q827 1483 880 1527T1028 1571Q1090 1571 1143 1548T1196
1446Q1196 1361 1153 1309T997 1257ZM510 1257Q437 1257 389 1283T340 1384Q340 1483 393 1527T541 1571Q582 1571 621 1562T685 1525T711 1446Q711 1361 667 1309T510 1257Z" />
<glyph unicode="&#xec;" horiz-adv-x="666" d="M23 0L262 1133H651L410 0H23ZM682 1241Q637 1283 588 1335T496 1443T428 1548V1569H823Q832 1525 844 1475T875 1371T917 1266V1241H682Z" />
<glyph unicode="&#xed;" horiz-adv-x="666" d="M23 0L262 1133H651L410 0H23ZM274 1241V1264Q322 1303 372 1355T471 1463T557 1569H995V1554Q973 1527 921 1485T803 1396T672 1308T559 1241H274Z" />
<glyph unicode="&#xee;" horiz-adv-x="666" d="M23 0L262 1133H651L410 0H23ZM-9 1241V1264Q39 1307 95 1361T206 1470T301 1569H747Q768 1524 798 1468T863 1358T927 1264V1241H661Q639 1261 610 1293T552 1359T505 1415Q449 1371 389 1326T266 1241H-9Z" />
<glyph unicode="&#xef;" horiz-adv-x="666" d="M23 0L262 1133H651L410 0H23ZM731 1257Q658 1257 610 1283T561 1384Q561 1483 614 1527T762 1571Q824 1571 877 1548T930 1446Q930 1361 887 1309T731 1257ZM244 1257Q171 1257 123 1283T74 1384Q74 1483 127 1527T275
1571Q316 1571 355 1562T419 1525T445 1446Q445 1361 401 1309T244 1257Z" />
<glyph unicode="&#xf0;" horiz-adv-x="1155" d="M520 -20Q387 -20 289 33T138 187T84 426Q84 548 117 655T216 842T375 968T592 1014Q669 1014 717 988T795 926L805 930Q798 990 775 1056T715 1176L442 1049L360 1217L580 1319Q557 1339 533 1357T485 1393L600
1573Q663 1545 721 1511T831 1436L1069 1546L1151 1380L967 1290Q1016 1229 1051 1135T1105 932T1124 717Q1124 593 1104 482T1040 279T925 120T754 17T520 -20ZM555 260Q593 260 622 281T673 337T708 413T728 496T735 571Q735 609 731 639T716 690T690 722T651
733Q602 733 568 699T512 613T481 506T471 408Q471 334 492 297T555 260Z" />
<glyph unicode="&#xf1;" horiz-adv-x="1274" d="M23 0L262 1133H571L559 975H567Q604 1039 649 1078T750 1135T879 1153Q985 1153 1050 1109T1147 992T1178 831Q1178 775 1171 716T1153 602L1026 0H639L768 618Q774 644 780 684T786 760Q786 803 764 824T711 846Q673
846 639 815T576 719T526 553L410 0H23ZM377 1237Q400 1361 444 1436T550 1545T691 1579Q735 1579 772 1564T843 1530T910 1496T977 1481Q1012 1481 1042 1505T1092 1581H1282Q1257 1455 1212 1380T1104 1272T961 1239Q913 1239 873 1254T797 1288T729 1322T662
1337Q631 1337 602 1310T566 1237H377Z" />
<glyph unicode="&#xf2;" horiz-adv-x="1243" d="M520 -20Q381 -20 284 31T135 179T84 416Q84 532 110 640T188 842T317 1005T495 1114T723 1153Q862 1153 959 1102T1108 954T1159 717Q1159 601 1133 493T1055 291T926 128T748 19T520 -20ZM563 270Q597 270 627
296T683 367T726 471T754 596T764 729Q764 773 754 802T724 847T678 862Q644 862 614 836T559 765T516 662T489 537T479 403Q479 337 501 304T563 270ZM705 1241Q660 1283 611 1335T519 1443T451 1548V1569H846Q855 1525 867 1475T898 1371T940 1266V1241H705Z"
/>
<glyph unicode="&#xf3;" horiz-adv-x="1243" d="M520 -20Q381 -20 284 31T135 179T84 416Q84 532 110 640T188 842T317 1005T495 1114T723 1153Q862 1153 959 1102T1108 954T1159 717Q1159 601 1133 493T1055 291T926 128T748 19T520 -20ZM563 270Q597 270 627
296T683 367T726 471T754 596T764 729Q764 773 754 802T724 847T678 862Q644 862 614 836T559 765T516 662T489 537T479 403Q479 337 501 304T563 270ZM553 1241V1264Q601 1303 651 1355T750 1463T836 1569H1274V1554Q1252 1527 1200 1485T1082 1396T951 1308T838
1241H553Z" />
<glyph unicode="&#xf4;" horiz-adv-x="1243" d="M520 -20Q381 -20 284 31T135 179T84 416Q84 532 110 640T188 842T317 1005T495 1114T723 1153Q862 1153 959 1102T1108 954T1159 717Q1159 601 1133 493T1055 291T926 128T748 19T520 -20ZM563 270Q597 270 627
296T683 367T726 471T754 596T764 729Q764 773 754 802T724 847T678 862Q644 862 614 836T559 765T516 662T489 537T479 403Q479 337 501 304T563 270ZM270 1241V1264Q318 1307 374 1361T485 1470T580 1569H1026Q1047 1524 1077 1468T1142 1358T1206 1264V1241H940Q918
1261 889 1293T831 1359T784 1415Q728 1371 668 1326T545 1241H270Z" />
<glyph unicode="&#xf5;" horiz-adv-x="1243" d="M520 -20Q381 -20 284 31T135 179T84 416Q84 532 110 640T188 842T317 1005T495 1114T723 1153Q862 1153 959 1102T1108 954T1159 717Q1159 601 1133 493T1055 291T926 128T748 19T520 -20ZM563 270Q597 270 627
296T683 367T726 471T754 596T764 729Q764 773 754 802T724 847T678 862Q644 862 614 836T559 765T516 662T489 537T479 403Q479 337 501 304T563 270ZM340 1237Q363 1361 407 1436T513 1545T654 1579Q698 1579 735 1564T806 1530T873 1496T940 1481Q975 1481 1005
1505T1055 1581H1245Q1220 1455 1175 1380T1067 1272T924 1239Q876 1239 836 1254T760 1288T692 1322T625 1337Q594 1337 565 1310T529 1237H340Z" />
<glyph unicode="&#xf6;" horiz-adv-x="1243" d="M520 -20Q381 -20 284 31T135 179T84 416Q84 532 110 640T188 842T317 1005T495 1114T723 1153Q862 1153 959 1102T1108 954T1159 717Q1159 601 1133 493T1055 291T926 128T748 19T520 -20ZM563 270Q597 270 627
296T683 367T726 471T754 596T764 729Q764 773 754 802T724 847T678 862Q644 862 614 836T559 765T516 662T489 537T479 403Q479 337 501 304T563 270ZM1009 1257Q936 1257 888 1283T839 1384Q839 1483 892 1527T1040 1571Q1102 1571 1155 1548T1208 1446Q1208
1361 1165 1309T1009 1257ZM522 1257Q449 1257 401 1283T352 1384Q352 1483 405 1527T553 1571Q594 1571 633 1562T697 1525T723 1446Q723 1361 679 1309T522 1257Z" />
<glyph unicode="&#xf7;" horiz-adv-x="1200" d="M92 588V856H1106V588H92ZM598 162Q535 162 489 202T442 332Q442 427 488 464T598 502Q660 502 708 465T756 332Q756 243 708 203T598 162ZM598 942Q535 942 489 982T442 1112Q442 1207 488 1244T598 1282Q660 1282
708 1245T756 1112Q756 1023 708 983T598 942Z" />
<glyph unicode="&#xf8;" horiz-adv-x="1286" d="M193 -111L66 -2L178 129Q134 185 109 255T84 416Q84 532 111 640T191 842T324 1005T508 1114T743 1153Q819 1153 880 1138T993 1096L1098 1217L1225 1108L1120 985Q1158 933 1180 867T1202 717Q1202 601 1175 493T1095
291T963 128T781 19T549 -20Q479 -20 420 -7T311 29L193 -111ZM590 260Q625 260 658 272T720 311T772 378T811 475T834 606Q834 617 835 628T836 649L518 274Q534 267 551 264T590 260ZM449 451L784 848Q768 862 748 869T702 877Q666 877 632 860T567 811T512 731T472
623T451 489Q450 480 450 471T449 451Z" />
<glyph unicode="&#xf9;" horiz-adv-x="1274" d="M395 -20Q290 -20 224 24T127 141T96 301Q96 358 103 417T121 530L248 1133H635L506 516Q500 490 494 450T487 375Q487 332 509 311T563 289Q597 289 631 320T696 416T748 582L864 1133H1251L1012 0H702L715 158H707Q670
95 625 56T524 -2T395 -20ZM715 1241Q670 1283 621 1335T529 1443T461 1548V1569H856Q865 1525 877 1475T908 1371T950 1266V1241H715Z" />
<glyph unicode="&#xfa;" horiz-adv-x="1274" d="M395 -20Q290 -20 224 24T127 141T96 301Q96 358 103 417T121 530L248 1133H635L506 516Q500 490 494 450T487 375Q487 332 509 311T563 289Q597 289 631 320T696 416T748 582L864 1133H1251L1012 0H702L715 158H707Q670
95 625 56T524 -2T395 -20ZM563 1241V1264Q611 1303 661 1355T760 1463T846 1569H1284V1554Q1262 1527 1210 1485T1092 1396T961 1308T848 1241H563Z" />
<glyph unicode="&#xfb;" horiz-adv-x="1274" d="M395 -20Q290 -20 224 24T127 141T96 301Q96 358 103 417T121 530L248 1133H635L506 516Q500 490 494 450T487 375Q487 332 509 311T563 289Q597 289 631 320T696 416T748 582L864 1133H1251L1012 0H702L715 158H707Q670
95 625 56T524 -2T395 -20ZM280 1241V1264Q328 1307 384 1361T495 1470T590 1569H1036Q1057 1524 1087 1468T1152 1358T1216 1264V1241H950Q928 1261 899 1293T841 1359T794 1415Q738 1371 678 1326T555 1241H280Z" />
<glyph unicode="&#xfc;" horiz-adv-x="1274" d="M395 -20Q290 -20 224 24T127 141T96 301Q96 358 103 417T121 530L248 1133H635L506 516Q500 490 494 450T487 375Q487 332 509 311T563 289Q597 289 631 320T696 416T748 582L864 1133H1251L1012 0H702L715 158H707Q670
95 625 56T524 -2T395 -20ZM1020 1257Q947 1257 899 1283T850 1384Q850 1483 903 1527T1051 1571Q1113 1571 1166 1548T1219 1446Q1219 1361 1176 1309T1020 1257ZM533 1257Q460 1257 412 1283T363 1384Q363 1483 416 1527T564 1571Q605 1571 644 1562T708 1525T734
1446Q734 1361 690 1309T533 1257Z" />
<glyph unicode="&#xfd;" horiz-adv-x="1114" d="M25 -492Q-33 -492 -70 -487T-129 -475V-168Q-110 -172 -82 -176T-20 -180Q69 -180 123 -143T221 -29L244 12L82 1133H471L510 612Q513 578 513 546T514 483T512 422H520Q530 453 542 488T567 558T590 616L813 1133H1229L559
-143Q498 -261 423 -338T251 -454T25 -492ZM462 1241V1264Q510 1303 560 1355T659 1463T745 1569H1183V1554Q1161 1527 1109 1485T991 1396T860 1308T747 1241H462Z" />
<glyph unicode="&#xfe;" horiz-adv-x="1243" d="M-82 -492L352 1556H739L690 1325Q672 1231 646 1149T600 1024H608Q637 1063 669 1092T743 1137T836 1153Q983 1153 1071 1044T1159 735Q1159 623 1136 514T1070 308T965 138T824 22T651 -20Q600 -20 558 -2T481
48T420 125H412Q405 45 395 -34T356 -246L305 -492H-82ZM573 291Q605 291 634 314T686 378T727 471T754 581T764 698Q764 768 743 805T678 842Q634 842 597 802T534 697T496 559Q489 528 487 497T485 434Q485 370 508 331T573 291Z" />
<glyph unicode="&#xff;" horiz-adv-x="1114" d="M25 -492Q-33 -492 -70 -487T-129 -475V-168Q-110 -172 -82 -176T-20 -180Q69 -180 123 -143T221 -29L244 12L82 1133H471L510 612Q513 578 513 546T514 483T512 422H520Q530 453 542 488T567 558T590 616L813 1133H1229L559
-143Q498 -261 423 -338T251 -454T25 -492ZM1175 1257Q1102 1257 1054 1283T1005 1384Q1005 1483 1058 1527T1206 1571Q1268 1571 1321 1548T1374 1446Q1374 1361 1331 1309T1175 1257ZM688 1257Q615 1257 567 1283T518 1384Q518 1483 571 1527T719 1571Q760 1571
799 1562T863 1525T889 1446Q889 1361 845 1309T688 1257Z" />
<glyph unicode="&#x2013;" horiz-adv-x="983" d="M33 416L90 690H961L901 416H33Z" />
<glyph unicode="&#x2014;" horiz-adv-x="1966" d="M33 416L90 690H1944L1884 416H33Z" />
<glyph unicode="&#x2018;" horiz-adv-x="500" d="M119 961L109 983Q140 1053 181 1135T271 1301T367 1462H655Q629 1401 604 1336T554 1204T508 1076T467 961H119Z" />
<glyph unicode="&#x2019;" horiz-adv-x="500" d="M94 961Q128 1042 162 1131T227 1306T283 1462H631L639 1440Q609 1370 567 1288T478 1122T383 961H94Z" />
<glyph unicode="&#x201a;" horiz-adv-x="621" d="M-104 -264Q-69 -183 -36 -94T28 81T84 238H432L440 215Q411 146 370 64T281 -103T184 -264H-104Z" />
<glyph unicode="&#x201c;" horiz-adv-x="997" d="M614 961L606 983Q637 1053 678 1135T767 1301T862 1462H1151Q1116 1381 1083 1292T1020 1118T963 961H614ZM119 961L109 983Q140 1053 181 1135T271 1301T367 1462H655Q629 1401 604 1336T554 1204T508 1076T467
961H119Z" />
<glyph unicode="&#x201d;" horiz-adv-x="997" d="M592 961Q626 1042 659 1131T723 1306T780 1462H1128L1135 1440Q1104 1370 1063 1288T975 1122T881 961H592ZM94 961Q128 1042 161 1131T225 1306T283 1462H631L639 1440Q609 1370 567 1288T478 1122T383 961H94Z" />
<glyph unicode="&#x201e;" horiz-adv-x="1122" d="M397 -264Q431 -183 464 -94T528 81T586 238H934L942 215Q912 146 870 64T781 -103T684 -264H397ZM-104 -264Q-69 -183 -36 -94T28 81T84 238H432L440 215Q411 146 370 64T281 -103T184 -264H-104Z" />
<glyph unicode="&#x2022;" horiz-adv-x="803" d="M379 389Q237 389 162 472T86 688Q86 798 129 893T257 1047T467 1106Q573 1106 637 1069T732 963T762 805Q762 692 722 597T598 446T379 389Z" />
<glyph unicode="&#x2039;" horiz-adv-x="719" d="M244 76L61 553V563L469 1081L733 877L467 543L578 213L244 76Z" />
<glyph unicode="&#x203a;" horiz-adv-x="719" d="M250 43L-14 248L252 582L141 911L473 1049L657 571V561L250 43Z" />
</font>
</defs>
</svg>
